<?xml version="1.0" standalone="no"?>
<!DOCTYPE svg PUBLIC "-//W3C//DTD SVG 1.1//EN" "http://www.w3.org/Graphics/SVG/1.1/DTD/svg11.dtd" >
<svg xmlns="http://www.w3.org/2000/svg">
<metadata>
<json>
<![CDATA[
{
	"fontFamily": "LineIcons",
	"majorVersion": 1,
	"minorVersion": 1,
	"fontURL": "https://lineicons.com",
	"description": "Free Line Icons for Modern Web and Mobile Apps\nFont generated by IcoMoon.",
	"copyright": "https://lineicons.com",
	"designer": "https://lineicons.com",
	"designerURL": "https://lineicons.com",
	"license": "Creative Commons",
	"licenseURL": "https://lineicons.com/license",
	"version": "Version 1.1",
	"fontId": "LineIcons",
	"psName": "LineIcons",
	"subFamily": "Regular",
	"fullName": "LineIcons"
}
]]>
</json>
</metadata>
<defs>
<font id="LineIcons" horiz-adv-x="1024">
<font-face units-per-em="1024" ascent="960" descent="-64" />
<missing-glyph horiz-adv-x="1024" />
<glyph unicode="&#x20;" horiz-adv-x="512" d="" />
<glyph unicode="&#xe900;" glyph-name="add-file" data-tags="add-file" d="M827.392 924.16h-629.76c-23.552 0-44.032-19.456-44.032-44.032v-583.68c0-5.12 2.048-11.264 6.144-14.336l309.248-304.128c4.096-4.096 9.216-6.144 14.336-6.144h343.040c23.552 0 44.032 19.456 44.032 44.032v864.256c0 24.576-19.456 44.032-43.008 44.032zM457.728 68.096l-206.848 203.776h206.848v-203.776zM814.080 28.16h-300.032v261.12c0 21.504-16.384 38.912-38.912 38.912h-265.216v539.648h604.16v-839.68zM637.952 647.68h-87.040v87.040c0 15.36-12.288 28.672-28.672 28.672s-27.648-13.312-27.648-28.672v-87.040h-87.040c-15.36 0-28.672-12.288-28.672-28.672s13.312-27.648 28.672-27.648h87.040v-87.040c0-15.36 12.288-28.672 28.672-28.672s27.648 12.288 27.648 27.648v88.064h87.040c15.36 0 28.672 12.288 28.672 28.672-1.024 16.384-13.312 27.648-28.672 27.648z" />
<glyph unicode="&#xe901;" glyph-name="display-alt" data-tags="display-alt" d="M952.32 809.472h-880.64c-26.624 0-49.152-21.504-49.152-49.152v-435.2c0-26.624 21.504-49.152 49.152-49.152h345.088l-35.84-134.144h-74.752c-15.36 0-28.672-12.288-28.672-28.672s12.288-28.672 28.672-28.672h412.672c15.36 0 28.672 12.288 28.672 28.672s-12.288 28.672-28.672 28.672h-74.752l-35.84 134.144h344.064c26.624 0 49.152 21.504 49.152 49.152v436.224c0 26.624-22.528 48.128-49.152 48.128zM585.728 142.848h-147.456l35.84 134.144h74.752l36.864-134.144zM945.152 332.288h-865.28v420.864h865.28v-420.864z" />
<glyph unicode="&#xe902;" glyph-name="laptop-phone" data-tags="laptop-phone" d="M955.392 621.056h-130.048v226.304c0 25.6-21.504 47.104-47.104 47.104h-643.072c-25.6 0-47.104-21.504-47.104-47.104v-336.896c0-8.192 2.048-15.36 6.144-21.504-4.096-5.12-7.168-11.264-9.216-18.432l-58.368-281.6v-1.024c-2.048-14.336 1.024-27.648 10.24-38.912 9.216-10.24 22.528-16.384 35.84-16.384h529.408v-91.136c0-22.528 18.432-40.96 40.96-40.96h313.344c22.528 0 40.96 18.432 40.96 40.96v538.624c-1.024 22.528-19.456 40.96-41.984 40.96zM602.112 188.928h-518.144l54.272 262.144h463.872v-262.144zM602.112 580.096v-61.44h-457.728v319.488h624.64v-217.088h-125.952c-22.528 0-40.96-18.432-40.96-40.96zM940.032 55.808h-281.6v508.928h281.6v-508.928zM790.528 500.224h28.672c11.264 0 20.48 9.216 20.48 20.48s-9.216 20.48-20.48 20.48h-28.672c-11.264 0-20.48-9.216-20.48-20.48s8.192-20.48 20.48-20.48zM899.072 520.704c0-9.614-7.794-17.408-17.408-17.408s-17.408 7.794-17.408 17.408c0 9.614 7.794 17.408 17.408 17.408s17.408-7.794 17.408-17.408zM804.864 137.728c-17.408 0-31.744-14.336-31.744-31.744s14.336-31.744 31.744-31.744 31.744 14.336 31.744 31.744-14.336 31.744-31.744 31.744z" />
<glyph unicode="&#xe903;" glyph-name="timer" data-tags="timer" d="M540.672 798.208v71.68h53.248c15.36 0 28.672 12.288 28.672 28.672s-12.288 28.672-28.672 28.672h-162.816c-15.36 0-28.672-12.288-28.672-28.672s12.288-28.672 28.672-28.672h52.224v-71.68c-216.064-14.336-387.072-194.56-387.072-413.696 0-229.376 186.368-415.744 414.72-415.744s414.72 186.368 414.72 415.744c1.024 219.136-169.984 399.36-385.024 413.696zM512 25.088c-197.632 0-358.4 160.768-358.4 359.424 0 48.128 10.24 97.28 29.696 141.312 18.432 43.008 46.080 82.944 79.872 115.712s74.752 59.392 117.76 76.8c20.48 8.192 41.984 14.336 63.488 18.432 54.272 10.24 111.616 8.192 164.864-7.168 45.056-13.312 88.064-34.816 124.928-64.512s67.584-65.536 90.112-106.496c23.552-41.984 37.888-89.088 43.008-136.192 1.024-12.288 2.048-24.576 2.048-36.864 1.024-198.656-159.744-360.448-357.376-360.448zM722.944 388.608h-182.272v214.016c0 15.36-12.288 28.672-28.672 28.672s-28.672-12.288-28.672-28.672v-214.016h-41.984c-15.36 0-28.672-12.288-28.672-28.672s12.288-28.672 28.672-28.672h41.984v-41.984c0-15.36 12.288-28.672 28.672-28.672s28.672 12.288 28.672 28.672v41.984h182.272c15.36 0 28.672 12.288 28.672 28.672s-13.312 28.672-28.672 28.672z" />
<glyph unicode="&#xe904;" glyph-name="headphone" data-tags="headphone" d="M986.112 329.216c0 264.192-217.088 478.208-482.304 473.088-260.096-4.096-465.92-221.184-464.896-480.256v-105.472c0-6.144 4.096-10.24 10.24-10.24h18.432v-93.184c0-11.264 9.216-20.48 20.48-20.48h80.896c11.264 0 20.48 9.216 20.48 20.48v139.264c0 11.264-9.216 20.48-20.48 20.48h-73.728v49.152c0 228.352 179.2 419.84 407.552 424.96 234.496 5.12 427.008-183.296 427.008-416.768v-57.344h-72.704c-11.264 0-20.48-9.216-20.48-20.48v-139.264c0-11.264 9.216-20.48 20.48-20.48h80.896c11.264 0 20.48 9.216 20.48 20.48v93.184h18.432c6.144 0 10.24 4.096 10.24 10.24l-1.024 112.64z" />
<glyph unicode="&#xe905;" glyph-name="rocket" data-tags="rocket" d="M968.704 631.296l-132.096 133.12c-8.192 8.192-19.456 12.288-30.72 11.264l-189.44-15.36c-161.792 137.216-365.568 190.464-533.504 134.144l-13.312-4.096-4.096-13.312c-56.32-167.936-3.072-371.712 135.168-533.504l-16.384-189.44c-1.024-11.264 3.072-22.528 11.264-30.72l132.096-132.096c7.168-7.168 17.408-11.264 27.648-11.264 4.096 0 8.192 1.024 13.312 2.048 14.336 5.12 24.576 17.408 26.624 32.768l19.456 159.744c33.792-17.408 68.608-31.744 104.448-43.008l4.096-1.024c7.168-2.048 15.36 0 20.48 5.12l281.6 281.6c5.12 5.12 7.168 13.312 5.12 20.48l-1.024 3.072c-11.264 35.84-25.6 70.656-43.008 104.448l159.744 19.456c15.36 2.048 27.648 12.288 32.768 26.624 4.096 14.336 1.024 29.696-10.24 39.936zM343.040 55.808l-102.4 102.4 11.264 131.072c33.792-32.768 70.656-60.416 108.544-84.992l-17.408-148.48zM519.168 189.952c-87.040 29.696-169.984 81.92-240.64 151.552-145.408 145.408-209.92 346.112-163.84 503.808 157.696 46.080 358.4-18.432 503.808-163.84 70.656-70.656 122.88-153.6 151.552-240.64l-250.88-250.88zM756.736 598.528c-24.576 37.888-53.248 74.752-84.992 108.544l131.072 11.264 102.4-102.4-148.48-17.408zM349.184 610.816c-37.888-37.888-37.888-99.328 0-138.24 19.456-19.456 44.032-28.672 68.608-28.672s50.176 9.216 68.608 28.672c37.888 37.888 37.888 99.328 0 138.24-37.888 37.888-99.328 37.888-137.216 0zM446.464 513.536c-16.384-16.384-41.984-16.384-58.368 0s-16.384 41.984 0 58.368c8.192 8.192 18.432 12.288 28.672 12.288s21.504-4.096 28.672-12.288c17.408-16.384 17.408-43.008 1.024-58.368zM880.64 352.768c-11.264 11.264-28.672 11.264-39.936 0l-235.52-235.52c-11.264-11.264-11.264-28.672 0-39.936 2.048-2.048 5.12-4.096 7.168-5.12 94.208-62.464 208.896-78.848 299.008-40.96 3.072 1.024 6.144 3.072 9.216 6.144s5.12 6.144 6.144 9.216c37.888 90.112 21.504 204.8-40.96 299.008-1.024 3.072-3.072 5.12-5.12 7.168zM878.592 79.36c-63.488-21.504-139.264-13.312-207.872 23.552l184.32 184.32c36.864-68.608 45.056-144.384 23.552-207.872z" />
<glyph unicode="&#xe906;" glyph-name="package" data-tags="package" d="M980.992 616.96l-143.36 287.744c-5.12 10.24-15.36 17.408-27.648 17.408h-595.968c-11.264 0-22.528-6.144-27.648-17.408l-143.36-287.744-7.168-15.36c-2.048-4.096-3.072-9.216-3.072-13.312v-583.68c0-17.408 13.312-30.72 30.72-30.72h898.048c17.408 0 30.72 13.312 30.72 30.72v583.68c0 5.12-1.024 9.216-3.072 13.312l-8.192 15.36zM539.648 865.792h254.976l123.904-248.832h-378.88c0 0 0 248.832 0 248.832zM230.4 865.792h252.928v-248.832h-377.856l124.928 248.832zM935.936 30.208h-847.872v530.432h846.848v-530.432h1.024zM453.632 84.48h-281.6c-16.384 0-29.696 13.312-29.696 29.696v151.552c0 16.384 13.312 29.696 29.696 29.696h280.576c16.384 0 30.72-13.312 30.72-29.696v-150.528c0-17.408-13.312-30.72-29.696-30.72z" />
<glyph unicode="&#xe907;" glyph-name="mobile" data-tags="mobile" d="M763.904 930.304h-503.808c-26.624 0-48.128-21.504-48.128-48.128v-869.376c0-26.624 21.504-48.128 48.128-48.128h504.832c26.624 0 48.128 21.504 48.128 48.128v869.376c-1.024 26.624-22.528 48.128-49.152 48.128zM755.712 22.016h-487.424v851.968h488.448l-1.024-851.968zM475.136 786.944h76.8c11.264 0 20.48 9.216 20.48 20.48s-9.216 20.48-20.48 20.48h-76.8c-11.264 0-20.48-9.216-20.48-20.48s9.216-20.48 20.48-20.48zM669.696 807.424c0-14.138-11.462-25.6-25.6-25.6s-25.6 11.462-25.6 25.6c0 14.138 11.462 25.6 25.6 25.6s25.6-11.462 25.6-25.6zM550.912 109.056c0-21.491-17.421-38.912-38.912-38.912s-38.912 17.421-38.912 38.912c0 21.491 17.421 38.912 38.912 38.912s38.912-17.421 38.912-38.912z" />
<glyph unicode="&#xe908;" glyph-name="website" data-tags="website" d="M952.32 809.472h-880.64c-26.624 0-49.152-21.504-49.152-49.152v-435.2c0-26.624 21.504-49.152 49.152-49.152h399.36v-134.144h-106.496c-15.36 0-28.672-12.288-28.672-28.672s12.288-28.672 28.672-28.672h294.912c15.36 0 28.672 12.288 28.672 28.672s-12.288 28.672-28.672 28.672h-106.496v134.144h399.36c26.624 0 49.152 21.504 49.152 49.152v436.224c0 26.624-22.528 48.128-49.152 48.128zM945.152 332.288h-865.28v420.864h865.28v-420.864zM203.776 407.040h225.28c11.264 0 20.48 9.216 20.48 20.48v230.4c0 11.264-9.216 20.48-20.48 20.48h-225.28c-11.264 0-20.48-9.216-20.48-20.48v-230.4c0-11.264 9.216-20.48 20.48-20.48zM541.696 545.28h279.552c11.264 0 20.48 9.216 20.48 20.48v93.184c0 11.264-9.216 20.48-20.48 20.48h-279.552c-11.264 0-20.48-9.216-20.48-20.48v-93.184c0-11.264 9.216-20.48 20.48-20.48zM541.696 407.040h279.552c11.264 0 20.48 9.216 20.48 20.48v15.36c0 11.264-9.216 20.48-20.48 20.48h-279.552c-11.264 0-20.48-9.216-20.48-20.48v-15.36c0-11.264 9.216-20.48 20.48-20.48z" />
<glyph unicode="&#xe909;" glyph-name="popup" data-tags="popup" d="M897.024 849.408h-770.048c-26.624 0-49.152-21.504-49.152-49.152v-561.152c0-26.624 21.504-49.152 49.152-49.152h224.256l133.12-133.12c7.168-7.168 16.384-11.264 27.648-11.264s19.456 4.096 27.648 11.264l133.12 133.12h224.256c26.624 0 49.152 21.504 49.152 49.152v561.152c-1.024 26.624-22.528 49.152-49.152 49.152zM888.832 247.296h-228.352c-7.168 0-14.336-3.072-19.456-8.192l-129.024-128-129.024 128c-5.12 5.12-12.288 8.192-19.456 8.192h-228.352v545.792h753.664v-545.792zM295.936 650.752h433.152c15.36 0 28.672 12.288 28.672 28.672s-12.288 28.672-28.672 28.672h-433.152c-15.36 0-28.672-12.288-28.672-28.672s12.288-28.672 28.672-28.672zM295.936 492.032h433.152c15.36 0 28.672 12.288 28.672 28.672s-12.288 28.672-28.672 28.672h-433.152c-15.36 0-28.672-12.288-28.672-28.672s12.288-28.672 28.672-28.672zM295.936 333.312h300.032c15.36 0 28.672 12.288 28.672 28.672s-12.288 28.672-28.672 28.672h-300.032c-15.36 0-28.672-12.288-28.672-28.672s12.288-28.672 28.672-28.672z" />
<glyph unicode="&#xe90a;" glyph-name="scroll-down" data-tags="scroll-down" d="M574.464 924.16h-124.928c-124.928 0-226.304-101.376-226.304-226.304v-499.712c0-124.928 101.376-226.304 226.304-226.304h124.928c124.928 0 226.304 101.376 226.304 226.304v499.712c0 124.928-101.376 226.304-226.304 226.304zM744.448 198.144c0-94.208-76.8-169.984-169.984-169.984h-124.928c-94.208 0-169.984 76.8-169.984 169.984v499.712c0 94.208 75.776 169.984 169.984 169.984h124.928c94.208 0 169.984-76.8 169.984-169.984v-499.712zM593.92 269.824l-81.92-81.92-81.92 81.92c-11.264 11.264-28.672 11.264-39.936 0s-11.264-28.672 0-39.936l95.232-95.232c7.168-7.168 17.408-11.264 26.624-11.264 10.24 0 19.456 4.096 27.648 11.264l95.232 95.232c11.264 11.264 11.264 28.672 0 39.936s-29.696 10.24-40.96 0zM547.84 738.816c0-19.794-16.046-35.84-35.84-35.84s-35.84 16.046-35.84 35.84c0 19.794 16.046 35.84 35.84 35.84s35.84-16.046 35.84-35.84zM547.84 580.096c0-19.794-16.046-35.84-35.84-35.84s-35.84 16.046-35.84 35.84c0 19.794 16.046 35.84 35.84 35.84s35.84-16.046 35.84-35.84zM547.84 421.376c0-19.794-16.046-35.84-35.84-35.84s-35.84 16.046-35.84 35.84c0 19.794 16.046 35.84 35.84 35.84s35.84-16.046 35.84-35.84z" />
<glyph unicode="&#xe90b;" glyph-name="pagination" data-tags="pagination" d="M94.208 448l191.488 191.488c11.264 11.264 11.264 28.672 0 39.936s-28.672 11.264-39.936 0l-203.776-204.8c-15.36-15.36-15.36-38.912 0-54.272l203.776-202.752c5.12-5.12 12.288-8.192 19.456-8.192s14.336 3.072 19.456 8.192c11.264 11.264 11.264 28.672 0 39.936l-190.464 190.464zM982.016 474.624l-203.776 203.776c-11.264 11.264-28.672 11.264-39.936 0s-11.264-28.672 0-39.936l191.488-190.464-190.464-191.488c-11.264-11.264-11.264-28.672 0-39.936 5.12-5.12 12.288-8.192 19.456-8.192s14.336 3.072 19.456 8.192l203.776 203.776c7.168 7.168 11.264 17.408 11.264 26.624 1.024 11.264-3.072 20.48-11.264 27.648zM311.296 479.744h-9.216c-15.36 0-28.672-12.288-28.672-28.672s12.288-28.672 28.672-28.672h9.216c15.36 0 28.672 12.288 28.672 28.672s-12.288 28.672-28.672 28.672zM516.096 479.744h-9.216c-15.36 0-28.672-12.288-28.672-28.672s12.288-28.672 28.672-28.672h9.216c15.36 0 28.672 12.288 28.672 28.672s-12.288 28.672-28.672 28.672zM749.568 451.072c0 15.36-12.288 28.672-28.672 28.672h-9.216c-15.36 0-28.672-12.288-28.672-28.672s12.288-28.672 28.672-28.672h9.216c16.384 1.024 28.672 13.312 28.672 28.672z" />
<glyph unicode="&#xe90c;" glyph-name="unlock" data-tags="unlock" d="M776.192 614.912v57.344c0 145.408-118.784 263.168-264.192 263.168-82.944 0-159.744-37.888-209.92-104.448-9.216-12.288-7.168-29.696 5.12-39.936 12.288-9.216 29.696-7.168 39.936 5.12 39.936 52.224 100.352 81.92 164.864 81.92 114.688 0 207.872-93.184 207.872-207.872v-54.272h-435.2c-110.592 2.048-199.68-87.040-199.68-197.632v-268.288c0-104.448 84.992-189.44 189.44-189.44h477.184c104.448 0 189.44 84.992 189.44 189.44v268.288c-1.024 97.28-72.704 179.2-164.864 196.608zM883.712 150.016c0-73.728-59.392-133.12-133.12-133.12h-477.184c-72.704 0-133.12 60.416-133.12 133.12v268.288c0 78.848 64.512 143.36 143.36 143.36h453.632c79.872 0 145.408-64.512 145.408-143.36v-268.288zM512 350.72c-22.528 0-40.96-18.432-40.96-40.96v-67.584c0-11.264 5.12-22.528 13.312-29.696v-41.984c0-15.36 12.288-28.672 28.672-28.672s28.672 12.288 28.672 28.672v41.984c8.192 7.168 13.312 18.432 13.312 29.696v67.584c-2.048 22.528-20.48 40.96-43.008 40.96z" />
<glyph unicode="&#xe90d;" glyph-name="reload" data-tags="reload" d="M284.672 514.56c0 15.36-12.288 28.672-28.672 28.672h-117.76c1.024 2.048 2.048 4.096 2.048 6.144 39.936 161.792 184.32 275.456 351.232 275.456 165.888 0 310.272-112.64 351.232-274.432 4.096-15.36 19.456-24.576 33.792-20.48 15.36 4.096 24.576 19.456 20.48 33.792-47.104 186.368-214.016 316.416-405.504 316.416-183.296 0-343.040-118.784-398.336-291.84v117.76c0 15.36-12.288 28.672-28.672 28.672s-28.672-12.288-28.672-28.672v-182.272c0-21.504 17.408-38.912 38.912-38.912h182.272c15.36 1.024 27.648 13.312 27.648 29.696zM949.248 359.936l-183.296 1.024c0 0 0 0 0 0-15.36 0-27.648-12.288-28.672-27.648 0-15.36 12.288-28.672 27.648-28.672h120.832c-53.248-139.264-186.368-231.424-336.896-231.424-154.624-1.024-292.864 98.304-342.016 246.784-5.12 14.336-20.48 22.528-35.84 18.432-14.336-5.12-22.528-20.48-18.432-35.84 56.32-172.032 216.064-286.72 396.288-286.72 165.888 0 314.368 97.28 380.928 246.784v-122.88c0-15.36 12.288-28.672 28.672-28.672s28.672 12.288 28.672 28.672v181.248c0 21.504-16.384 38.912-37.888 38.912z" />
<glyph unicode="&#xe90e;" glyph-name="map" data-tags="map" d="M535.552 754.176c0-13.007-10.545-23.552-23.552-23.552s-23.552 10.545-23.552 23.552c0 13.007 10.545 23.552 23.552 23.552s23.552-10.545 23.552-23.552zM950.272 690.688l-291.84 29.696-23.552-5.12c4.096 12.288 6.144 23.552 6.144 33.792 0 72.704-56.32 129.024-128 129.024s-129.024-58.368-129.024-129.024c0-21.504 10.24-51.2 25.6-80.896l-46.080-9.216-282.624 29.696c-10.24 1.024-21.504-2.048-29.696-9.216s-12.288-17.408-12.288-28.672v-565.248c0-19.456 15.36-35.84 34.816-37.888l291.84-30.72 26.624 5.12 270.336 56.32 279.552-28.672c1.024 0 3.072 0 4.096 0 9.216 0 18.432 3.072 25.6 10.24 8.192 7.168 12.288 17.408 12.288 28.672v563.2c1.024 20.48-14.336 36.864-33.792 38.912zM95.232 101.888v528.384l240.64-24.576v-528.384l-240.64 24.576zM512 822.784c39.936 0 71.68-31.744 71.68-72.704 0-26.624-37.888-93.184-72.704-147.456-34.816 54.272-72.704 120.832-72.704 147.456 1.024 39.936 33.792 72.704 73.728 72.704zM392.192 607.744l44.032 9.216c22.528-37.888 44.032-69.632 52.224-80.896l22.528-31.744 22.528 31.744c10.24 14.336 46.080 65.536 72.704 116.736l24.576 5.12v-527.36l-240.64-50.176v527.36zM928.768 107.008l-240.64 24.576v529.408l240.64-24.576v-529.408z" />
<glyph unicode="&#xe90f;" glyph-name="game" data-tags="game" d="M958.464 605.696c-29.696 30.72-71.68 48.128-113.664 48.128h-304.128v175.104c0 15.36-12.288 28.672-28.672 28.672s-28.672-12.288-28.672-28.672v-176.128h-304.128c-88.064 0-159.744-71.68-159.744-159.744v-293.888c0-88.064 71.68-160.768 159.744-160.768 82.944 0 150.528 62.464 159.744 142.336h347.136c8.192-80.896 76.8-143.36 159.744-143.36 88.064 0 158.72 71.68 158.72 159.744v295.936c1.024 41.984-15.36 81.92-46.080 112.64zM948.224 198.144c0-57.344-46.080-103.424-102.4-103.424-57.344 0-104.448 47.104-104.448 103.424 0 22.528-17.408 39.936-38.912 39.936h-378.88c-22.528 0-39.936-17.408-39.936-39.936 0-56.32-47.104-102.4-103.424-102.4s-104.448 47.104-104.448 103.424v293.888c0 57.344 47.104 103.424 103.424 103.424h665.6c27.648 0 54.272-11.264 73.728-30.72s29.696-45.056 29.696-72.704v-294.912zM349.184 440.832h-59.392v57.344c0 15.36-12.288 28.672-28.672 28.672s-28.672-12.288-28.672-28.672v-57.344h-57.344c-15.36 0-28.672-12.288-28.672-28.672s12.288-28.672 28.672-28.672h57.344v-58.368c0-15.36 12.288-28.672 28.672-28.672s28.672 12.288 28.672 28.672v59.392h59.392c15.36 0 28.672 12.288 28.672 28.672s-12.288 27.648-28.672 27.648zM830.464 413.184l40.96 40.96c11.264 11.264 11.264 28.672 0 39.936s-28.672 11.264-39.936 0l-40.96-40.96-40.96 40.96c-11.264 11.264-28.672 11.264-39.936 0s-11.264-28.672 0-39.936l40.96-40.96-41.984-41.984c-11.264-11.264-11.264-28.672 0-39.936 5.12-5.12 12.288-8.192 19.456-8.192s14.336 3.072 19.456 8.192l41.984 41.984 41.984-41.984c5.12-5.12 12.288-8.192 19.456-8.192s14.336 3.072 19.456 8.192c11.264 11.264 11.264 28.672 0 39.936l-39.936 41.984z" />
<glyph unicode="&#xe910;" glyph-name="search" data-tags="search" d="M966.656 101.888l-217.088 217.088c-19.456 19.456-50.176 19.456-69.632 1.024l-95.232 94.208c44.032 53.248 71.68 121.856 71.68 196.608 0 168.96-137.216 307.2-307.2 307.2s-307.2-137.216-307.2-307.2 137.216-307.2 307.2-307.2c73.728 0 142.336 26.624 195.584 70.656l95.232-94.208-1.024-1.024c-19.456-19.456-19.456-52.224 0-71.68l217.088-216.064c19.456-19.456 52.224-19.456 71.68 0l38.912 38.912c19.456 20.48 19.456 52.224 0 71.68zM99.328 610.816c0 138.24 112.64 250.88 250.88 250.88s250.88-112.64 250.88-250.88-112.64-250.88-250.88-250.88-250.88 113.664-250.88 250.88z" />
<glyph unicode="&#xe911;" glyph-name="alarm" data-tags="alarm" d="M870.4 114.176c-34.816 34.816-58.368 79.872-66.56 128 0 1.024 0 2.048 0 3.072l-45.056 297.984c-3.072 16.384-4.096 30.72-6.144 45.056-6.144 118.784-99.328 214.016-216.064 227.328v89.088c0 15.36-12.288 28.672-28.672 28.672s-26.624-13.312-26.624-28.672v-90.112c-113.664-14.336-203.776-108.544-209.92-227.328 0-10.24-2.048-22.528-4.096-33.792l-46.080-295.936-4.096-25.6c-10.24-46.080-31.744-87.040-64.512-117.76-11.264-11.264-15.36-28.672-9.216-44.032 6.144-14.336 20.48-24.576 36.864-24.576h277.504c0-3.072-1.024-5.12-1.024-8.192l-1.024-22.528c-1.024-28.672 21.504-52.224 49.152-52.224 1.024 0 1.024 0 2.048 0 27.648 0 50.176 21.504 51.2 49.152l1.024 22.528c0 4.096 0 7.168-1.024 11.264h283.648c16.384 0 30.72 9.216 36.864 24.576 7.168 15.36 4.096 32.768-8.192 44.032zM218.112 101.888c26.624 33.792 46.080 74.752 55.296 118.784 2.048 7.168 3.072 14.336 3.072 21.504 0 2.048 1.024 5.12 1.024 8.192l44.032 285.696 1.024 10.24c2.048 12.288 3.072 25.6 4.096 38.912 5.12 96.256 82.944 172.032 178.176 175.104 1.024 0 2.048 0 4.096 0s3.072 0 5.12 1.024c97.28-2.048 177.152-77.824 182.272-176.128 1.024-16.384 3.072-32.768 6.144-49.152l45.056-295.936c0-1.024 0-3.072 1.024-4.096v-2.048c8.192-48.128 27.648-93.184 57.344-132.096h-587.776z" />
<glyph unicode="&#xe912;" glyph-name="code-alt" data-tags="code-alt" d="M327.68 421.376c5.12-5.12 12.288-8.192 19.456-8.192s14.336 3.072 19.456 8.192c11.264 11.264 11.264 28.672 0 39.936l-86.016 86.016 86.016 86.016c11.264 11.264 11.264 28.672 0 39.936-10.24 10.24-27.648 10.24-38.912 0l-102.4-102.4c-13.312-13.312-13.312-33.792 0-47.104l102.4-102.4zM656.384 421.376c5.12-5.12 12.288-8.192 19.456-8.192s14.336 3.072 19.456 8.192l102.4 102.4c13.312 13.312 13.312 33.792 0 47.104l-101.376 102.4c-11.264 11.264-28.672 11.264-39.936 0s-11.264-28.672 0-39.936l86.016-86.016-86.016-86.016c-10.24-11.264-10.24-28.672 0-39.936zM452.608 417.28c4.096-2.048 8.192-3.072 12.288-3.072 10.24 0 20.48 6.144 25.6 15.36l93.184 192.512c7.168 14.336 1.024 30.72-13.312 37.888s-30.72 1.024-37.888-13.312l-92.16-191.488c-7.168-14.336-1.024-30.72 12.288-37.888zM952.32 809.472h-880.64c-26.624 0-49.152-21.504-49.152-49.152v-435.2c0-26.624 21.504-49.152 49.152-49.152h399.36v-134.144h-106.496c-15.36 0-28.672-12.288-28.672-28.672s12.288-28.672 28.672-28.672h294.912c15.36 0 28.672 12.288 28.672 28.672s-12.288 28.672-28.672 28.672h-106.496v134.144h399.36c26.624 0 49.152 21.504 49.152 49.152v436.224c0 26.624-22.528 48.128-49.152 48.128zM945.152 332.288h-865.28v420.864h865.28v-420.864z" />
<glyph unicode="&#xe913;" glyph-name="display" data-tags="display" d="M952.32 809.472h-880.64c-26.624 0-49.152-21.504-49.152-49.152v-435.2c0-26.624 21.504-49.152 49.152-49.152h399.36v-134.144h-106.496c-15.36 0-28.672-12.288-28.672-28.672s12.288-28.672 28.672-28.672h294.912c15.36 0 28.672 12.288 28.672 28.672s-12.288 28.672-28.672 28.672h-106.496v134.144h399.36c26.624 0 49.152 21.504 49.152 49.152v436.224c0 26.624-22.528 48.128-49.152 48.128zM945.152 332.288h-865.28v420.864h865.28v-420.864z" />
<glyph unicode="&#xe914;" glyph-name="cloud-download" data-tags="cloud-download" d="M1001.472 382.464c0 73.728-27.648 145.408-77.824 200.704-2.048 2.048-3.072 3.072-5.12 4.096-44.032 46.080-101.376 76.8-163.84 86.016-33.792 56.32-86.016 98.304-148.48 120.832 0 0 0 0 0 0s0 0 0 0 0 0-1.024 0v0c-27.648 10.24-57.344 16.384-91.136 16.384-153.6 0-279.552-122.88-284.672-275.456-114.688-10.24-204.8-107.52-204.8-225.28 0-121.856 98.304-222.208 219.136-224.256 0 0 1.024 0 1.024 0h471.040c1.024 0 2.048 0 3.072 0 156.672 7.168 282.624 137.216 282.624 296.96zM704.512 141.824h-456.704c-93.184 0-168.96 75.776-168.96 168.96s75.776 168.96 168.96 168.96h35.84v46.080c0 125.952 102.4 228.352 228.352 228.352 27.648 0 51.2-4.096 71.68-12.288 0 0 1.024 0 1.024 0v0c54.272-18.432 98.304-57.344 125.952-107.52l7.168-13.312 14.336-2.048c56.32-6.144 108.544-32.768 147.456-74.752l1.024 1.024c0 0 0 0 0-1.024 40.96-45.056 63.488-102.4 63.488-161.792 1.024-133.12-107.52-240.64-239.616-240.64zM580.608 337.408l-40.96-31.744v212.992c0 13.312-9.216 25.6-22.528 28.672-18.432 3.072-33.792-10.24-33.792-27.648v-214.016l-40.96 31.744c-10.24 8.192-26.624 9.216-36.864 0-14.336-12.288-13.312-32.768 1.024-44.032l98.304-77.824c4.096-3.072 9.216-3.072 12.288 0l98.304 77.824c13.312 11.264 14.336 31.744 1.024 44.032-9.216 9.216-24.576 9.216-35.84 0z" />
<glyph unicode="&#xe915;" glyph-name="headphone-alt" data-tags="headphone-alt" d="M980.992 407.040c0 261.12-215.040 473.088-477.184 467.968-257.024-4.096-459.776-219.136-459.776-476.16v-104.448c0-6.144 4.096-10.24 10.24-10.24h17.408v-91.136c0-11.264 9.216-20.48 20.48-20.48h11.264v-51.2c0-25.6 19.456-47.104 45.056-48.128l294.912-21.504v-16.384c0-8.192 7.168-15.36 15.36-15.36h131.072c8.192 0 15.36 7.168 15.36 15.36v81.92c0 8.192-7.168 15.36-15.36 15.36h-130.048c-8.192 0-15.36-7.168-15.36-15.36v-8.192l-284.672 20.48v44.032h11.264c11.264 0 20.48 9.216 20.48 20.48v136.192c0 11.264-9.216 20.48-20.48 20.48h-71.68v48.128c0 225.28 177.152 414.72 402.432 419.84 232.448 6.144 422.912-181.248 422.912-411.648v-56.32h-71.68c-11.264 0-20.48-9.216-20.48-20.48v-137.216c0-11.264 9.216-20.48 20.48-20.48h78.848c11.264 0 20.48 9.216 20.48 20.48v91.136h18.432c6.144 0 10.24 4.096 10.24 10.24v112.64z" />
<glyph unicode="&#xe916;" glyph-name="empty-file" data-tags="empty-file" d="M827.392 924.16h-629.76c-23.552 0-44.032-19.456-44.032-44.032v-583.68c0-5.12 2.048-11.264 6.144-14.336l309.248-304.128c4.096-4.096 9.216-6.144 14.336-6.144h343.040c23.552 0 44.032 19.456 44.032 44.032v864.256c0 24.576-19.456 44.032-43.008 44.032zM457.728 68.096l-206.848 203.776h206.848v-203.776zM814.080 28.16h-300.032v261.12c0 21.504-16.384 38.912-38.912 38.912h-265.216v539.648h604.16v-839.68z" />
<glyph unicode="&#xe917;" glyph-name="remove-file" data-tags="remove-file" d="M827.392 924.16h-629.76c-23.552 0-44.032-19.456-44.032-44.032v-583.68c0-5.12 2.048-11.264 6.144-14.336l309.248-304.128c4.096-4.096 9.216-6.144 14.336-6.144h343.040c23.552 0 44.032 19.456 44.032 44.032v864.256c0 24.576-19.456 44.032-43.008 44.032zM457.728 68.096l-206.848 203.776h206.848v-203.776zM814.080 28.16h-300.032v261.12c0 21.504-16.384 38.912-38.912 38.912h-265.216v539.648h604.16v-839.68zM397.312 596.48h229.376c15.36 0 28.672 12.288 28.672 28.672s-12.288 27.648-27.648 27.648h-230.4c-15.36 0-28.672-12.288-28.672-28.672s13.312-27.648 28.672-27.648z" />
<glyph unicode="&#xe918;" glyph-name="alarm-clock" data-tags="alarm-clock" d="M854.016 620.032c29.696 25.6 48.128 63.488 48.128 103.424 0 75.776-61.44 137.216-137.216 137.216-55.296 0-102.4-32.768-123.904-80.896-31.744 10.24-65.536 17.408-101.376 19.456v71.68h53.248c15.36 0 28.672 12.288 28.672 28.672s-12.288 28.672-28.672 28.672h-161.792c-15.36 0-28.672-12.288-28.672-28.672s12.288-28.672 28.672-28.672h53.248v-71.68c-31.744-2.048-63.488-8.192-93.184-17.408-22.528 46.080-69.632 76.8-122.88 76.8-75.776 0-137.216-61.44-137.216-137.216 0-36.864 15.36-71.68 43.008-97.28-48.128-67.584-76.8-150.528-76.8-239.616 0-229.376 186.368-415.744 415.744-415.744s415.744 186.368 415.744 415.744c-1.024 87.040-28.672 167.936-74.752 235.52zM764.928 804.352c45.056 0 80.896-35.84 80.896-80.896 0-22.528-10.24-44.032-26.624-59.392-35.84 38.912-77.824 70.656-125.952 94.208 13.312 27.648 40.96 46.080 71.68 46.080zM186.368 721.408c0 45.056 35.84 80.896 80.896 80.896 29.696 0 56.32-16.384 69.632-40.96-49.152-22.528-92.16-54.272-129.024-93.184-13.312 14.336-21.504 33.792-21.504 53.248zM512 25.088c-197.632 0-359.424 160.768-359.424 359.424 0 83.968 28.672 161.792 77.824 222.208 3.072 2.048 5.12 4.096 7.168 7.168 0 1.024 1.024 1.024 1.024 2.048 37.888 44.032 84.992 78.848 139.264 101.376 0 0 1.024 0 1.024 0 4.096 1.024 7.168 2.048 10.24 4.096 35.84 13.312 74.752 20.48 114.688 21.504 2.048-1.024 5.12-1.024 8.192-1.024s5.12 1.024 8.192 1.024c45.056-1.024 87.040-10.24 125.952-25.6 2.048-1.024 3.072-2.048 5.12-2.048 54.272-22.528 101.376-58.368 138.24-103.424 1.024-2.048 3.072-4.096 5.12-6.144 48.128-61.44 76.8-138.24 76.8-221.184 0-197.632-161.792-359.424-359.424-359.424zM722.944 389.632h-183.296v212.992c0 15.36-12.288 28.672-28.672 28.672s-28.672-12.288-28.672-28.672v-212.992h-43.008c-15.36 0-28.672-12.288-28.672-28.672s12.288-28.672 28.672-28.672h43.008v-43.008c0-15.36 12.288-28.672 28.672-28.672s28.672 12.288 28.672 28.672v43.008h182.272c15.36 0 28.672 12.288 28.672 28.672s-12.288 28.672-27.648 28.672z" />
<glyph unicode="&#xe919;" glyph-name="shortcode" data-tags="shortcode" d="M519.168 463.36c-16.384 5.12-28.672 10.24-36.864 16.384s-12.288 13.312-12.288 21.504c0 9.216 4.096 16.384 11.264 21.504s17.408 8.192 30.72 8.192c14.336 0 24.576-4.096 31.744-10.24 3.072-4.096 6.144-8.192 8.192-12.288 4.096-9.216 11.264-15.36 21.504-15.36h4.096c18.432 0 30.72 18.432 22.528 34.816-1.024 2.048-3.072 4.096-4.096 6.144-8.192 12.288-19.456 21.504-33.792 28.672s-30.72 10.24-49.152 10.24c-18.432 0-34.816-3.072-49.152-9.216s-25.6-14.336-33.792-25.6c-7.168-10.24-11.264-22.528-11.264-36.864 0-26.624 14.336-48.128 44.032-63.488 11.264-5.12 25.6-11.264 44.032-17.408s30.72-12.288 37.888-17.408c7.168-6.144 10.24-13.312 10.24-23.552 0-9.216-4.096-16.384-13.312-21.504-7.168-5.12-17.408-8.192-29.696-8.192-27.648 0-43.008 9.216-49.152 26.624-4.096 10.24-14.336 16.384-24.576 16.384h-1.024c-18.432 0-30.72-18.432-22.528-34.816 1.024-3.072 3.072-6.144 5.12-9.216 8.192-12.288 20.48-22.528 36.864-29.696s34.816-11.264 54.272-11.264c28.672 0 51.2 7.168 68.608 19.456s25.6 29.696 25.6 52.224c0 19.456-7.168 36.864-20.48 50.176s-34.816 24.576-65.536 33.792zM284.672 678.4c-11.264 11.264-28.672 11.264-39.936 0l-202.752-203.776c-15.36-15.36-15.36-38.912 0-54.272l203.776-202.752c5.12-5.12 12.288-8.192 19.456-8.192s14.336 3.072 19.456 8.192c11.264 11.264 11.264 28.672 0 39.936l-190.464 190.464 191.488 191.488c10.24 10.24 10.24 28.672-1.024 38.912zM982.016 474.624l-203.776 203.776c-11.264 11.264-28.672 11.264-39.936 0s-11.264-28.672 0-39.936l191.488-190.464-190.464-191.488c-11.264-11.264-11.264-28.672 0-39.936 5.12-5.12 12.288-8.192 19.456-8.192s14.336 3.072 19.456 8.192l203.776 203.776c7.168 7.168 11.264 17.408 11.264 26.624 1.024 11.264-3.072 20.48-11.264 27.648z" />
<glyph unicode="&#xe91a;" glyph-name="bookmark-alt" data-tags="bookmark-alt" d="M951.296 681.472h-499.712v121.856c0 21.504-17.408 38.912-38.912 38.912h-205.824c-21.504 0-38.912-17.408-38.912-38.912v-121.856h-95.232c-27.648 0-49.152-22.528-49.152-49.152v-528.384c0-27.648 22.528-49.152 49.152-49.152h878.592c27.648 0 49.152 22.528 49.152 49.152v527.36c1.024 27.648-21.504 50.176-49.152 50.176zM224.256 785.92h171.008v-272.384l-60.416 51.2c-7.168 6.144-16.384 9.216-25.6 9.216s-17.408-3.072-25.6-9.216l-60.416-51.2v272.384zM945.152 110.080h-865.28v515.072h88.064v-149.504c0-15.36 8.192-28.672 22.528-34.816 5.12-2.048 11.264-4.096 16.384-4.096 9.216 0 17.408 3.072 24.576 9.216l77.824 66.56 77.824-66.56c11.264-10.24 27.648-12.288 40.96-5.12 14.336 6.144 22.528 19.456 22.528 34.816v149.504h492.544v-515.072z" />
<glyph unicode="&#xe91b;" glyph-name="bookmark" data-tags="bookmark" d="M263.168-31.232c-7.168 0-14.336 1.024-20.48 4.096-19.456 9.216-32.768 28.672-32.768 52.224v846.848c0 29.696 23.552 54.272 53.248 54.272h497.664c28.672 0 53.248-24.576 53.248-54.272v-845.824c2.048-20.48-8.192-39.936-25.6-50.176-18.432-10.24-41.984-8.192-59.392 5.12l-2.048 2.048-214.016 194.56-214.016-194.56c-10.24-9.216-22.528-14.336-35.84-14.336zM266.24 870.912v-840.704l211.968 192.512c20.48 16.384 49.152 16.384 69.632 0l1.024-1.024 208.896-189.44v838.656h-491.52z" />
<glyph unicode="&#xe91c;" glyph-name="code" data-tags="code" d="M284.672 679.424c-11.264 11.264-28.672 11.264-39.936 0l-203.776-203.776c-7.168-8.192-11.264-17.408-11.264-27.648s4.096-19.456 11.264-27.648l203.776-203.776c5.12-5.12 12.288-8.192 19.456-8.192s14.336 3.072 19.456 8.192c11.264 11.264 11.264 28.672 0 39.936l-190.464 191.488 191.488 191.488c11.264 11.264 11.264 28.672 0 39.936zM983.040 475.648l-203.776 203.776c-11.264 11.264-28.672 11.264-39.936 0s-11.264-28.672 0-39.936l191.488-191.488-191.488-191.488c-11.264-11.264-11.264-28.672 0-39.936 5.12-5.12 12.288-8.192 19.456-8.192s14.336 3.072 19.456 8.192l204.8 203.776c7.168 7.168 11.264 16.384 11.264 27.648 0 10.24-4.096 19.456-11.264 27.648zM617.472 645.632c-14.336 7.168-30.72 1.024-37.888-13.312l-185.344-380.928c-7.168-14.336-1.024-30.72 13.312-37.888 4.096-2.048 8.192-3.072 12.288-3.072 10.24 0 20.48 6.144 25.6 15.36l185.344 381.952c6.144 14.336 0 31.744-13.312 37.888z" />
<glyph unicode="&#xe91d;" glyph-name="keyboard" data-tags="keyboard" d="M979.968 723.456h-935.936c-21.504 0-38.912-17.408-38.912-38.912v-474.112c0-21.504 17.408-38.912 38.912-38.912h934.912c21.504 0 38.912 17.408 38.912 38.912v474.112c0 21.504-17.408 38.912-37.888 38.912zM961.536 228.864h-899.072v438.272h899.072v-438.272zM721.92 344.576h-419.84c-15.36 0-28.672-12.288-28.672-28.672s12.288-28.672 28.672-28.672h420.864c15.36 0 28.672 12.288 28.672 28.672s-13.312 28.672-29.696 28.672zM180.224 535.040h53.248c6.144 0 10.24 4.096 10.24 10.24v47.104c0 6.144-4.096 10.24-10.24 10.24h-53.248c-6.144 0-10.24-4.096-10.24-10.24v-47.104c0-5.12 4.096-10.24 10.24-10.24zM384 535.040h53.248c6.144 0 10.24 4.096 10.24 10.24v47.104c0 6.144-4.096 10.24-10.24 10.24h-53.248c-6.144 0-10.24-4.096-10.24-10.24v-47.104c0-5.12 4.096-10.24 10.24-10.24zM586.752 535.040h53.248c6.144 0 10.24 4.096 10.24 10.24v47.104c0 6.144-4.096 10.24-10.24 10.24h-53.248c-6.144 0-10.24-4.096-10.24-10.24v-47.104c0-5.12 5.12-10.24 10.24-10.24zM790.528 535.040h53.248c6.144 0 10.24 4.096 10.24 10.24v47.104c0 6.144-4.096 10.24-10.24 10.24h-53.248c-6.144 0-10.24-4.096-10.24-10.24v-47.104c0-5.12 4.096-10.24 10.24-10.24zM281.6 413.184h53.248c6.144 0 10.24 4.096 10.24 10.24v47.104c0 6.144-4.096 10.24-10.24 10.24h-53.248c-6.144 0-10.24-4.096-10.24-10.24v-47.104c0-5.12 5.12-10.24 10.24-10.24zM485.376 413.184h53.248c6.144 0 10.24 4.096 10.24 10.24v47.104c0 6.144-4.096 10.24-10.24 10.24h-53.248c-6.144 0-10.24-4.096-10.24-10.24v-47.104c0-5.12 4.096-10.24 10.24-10.24zM688.128 413.184h53.248c6.144 0 10.24 4.096 10.24 10.24v47.104c0 6.144-4.096 10.24-10.24 10.24h-53.248c-6.144 0-10.24-4.096-10.24-10.24v-47.104c0-5.12 5.12-10.24 10.24-10.24z" />
<glyph unicode="&#xe91e;" glyph-name="map-marker" data-tags="map-marker" d="M512 941.568c-185.344 0-335.872-150.528-335.872-335.872 0-177.152 300.032-602.112 313.344-619.52l22.528-32.768 22.528 32.768c12.288 18.432 313.344 442.368 313.344 619.52 0 185.344-150.528 335.872-335.872 335.872zM512 51.712c-95.232 139.264-279.552 432.128-279.552 553.984 0 154.624 124.928 279.552 279.552 279.552s279.552-125.952 279.552-279.552c0-120.832-184.32-414.72-279.552-553.984zM512 765.44c-80.896 0-146.432-65.536-146.432-146.432s65.536-146.432 146.432-146.432c80.896 0 146.432 65.536 146.432 146.432s-65.536 146.432-146.432 146.432zM512 528.896c-50.176 0-90.112 40.96-90.112 90.112s40.96 90.112 90.112 90.112 90.112-40.96 90.112-90.112-39.936-90.112-90.112-90.112z" />
<glyph unicode="&#xe91f;" glyph-name="grid-alt" data-tags="grid-alt" d="M93.184 525.824h272.384c36.864 0 66.56 29.696 66.56 66.56v272.384c0 36.864-29.696 66.56-66.56 66.56h-272.384c-36.864 0-67.584-29.696-67.584-66.56v-271.36c0-36.864 30.72-67.584 67.584-67.584zM81.92 864.768c0 6.144 5.12 10.24 11.264 10.24h272.384c6.144 0 10.24-5.12 10.24-10.24v-272.384c0-4.096-4.096-10.24-10.24-10.24h-272.384c-6.144 0-11.264 5.12-11.264 11.264v271.36zM656.384 525.824h271.36c35.84 0 66.56 28.672 67.584 64.512v273.408c0 36.864-29.696 66.56-66.56 66.56h-272.384c-36.864 0-66.56-29.696-66.56-66.56v-271.36c-1.024-35.84 29.696-66.56 66.56-66.56zM645.12 864.768c0 6.144 5.12 10.24 10.24 10.24h272.384c6.144 0 10.24-5.12 10.24-10.24v-271.36c-1.024-5.12-5.12-10.24-12.288-10.24h-269.312c-6.144 0-10.24 5.12-10.24 11.264v270.336zM367.616 369.152h-272.384c-36.864 0-66.56-29.696-66.56-66.56v-271.36c0-36.864 29.696-66.56 66.56-66.56h271.36c35.84 0 66.56 28.672 67.584 64.512v273.408c1.024 36.864-29.696 66.56-66.56 66.56zM378.88 31.232c-1.024-5.12-5.12-10.24-12.288-10.24h-271.36c-6.144 0-10.24 5.12-10.24 10.24v271.36c0 6.144 5.12 10.24 10.24 10.24h272.384c6.144 0 11.264-5.12 11.264-10.24v-271.36zM929.792 369.152h-272.384c-36.864 0-66.56-29.696-66.56-66.56v-271.36c0-36.864 29.696-66.56 66.56-66.56h272.384c34.816 0 65.536 28.672 66.56 64.512v273.408c0 36.864-29.696 66.56-66.56 66.56zM940.032 31.232c-1.024-5.12-6.144-10.24-10.24-10.24h-272.384c-6.144 0-10.24 5.12-10.24 10.24v271.36c0 6.144 5.12 10.24 10.24 10.24h272.384c6.144 0 10.24-5.12 10.24-10.24v-271.36z" />
<glyph unicode="&#xe920;" glyph-name="grid" data-tags="grid" d="M983.040 419.328c15.36 0 28.672 12.288 28.672 28.672s-12.288 28.672-28.672 28.672h-99.328v286.72h99.328c15.36 0 28.672 12.288 28.672 28.672s-12.288 28.672-28.672 28.672h-99.328v98.304c0 15.36-12.288 28.672-28.672 28.672s-27.648-13.312-27.648-28.672v-99.328h-286.72v99.328c0 15.36-12.288 28.672-28.672 28.672s-27.648-13.312-27.648-28.672v-99.328h-287.744v99.328c0 15.36-12.288 28.672-28.672 28.672s-27.648-13.312-27.648-28.672v-99.328h-99.328c-15.36 0-28.672-12.288-28.672-28.672s12.288-28.672 28.672-28.672h99.328v-287.744h-99.328c-15.36 0-28.672-12.288-28.672-28.672s12.288-28.672 28.672-28.672h99.328v-287.744h-99.328c-15.36 0-28.672-12.288-28.672-28.672s12.288-28.672 28.672-28.672h99.328v-95.232c0-15.36 12.288-28.672 28.672-28.672s28.672 12.288 28.672 28.672v99.328h287.744v-99.328c0-15.36 12.288-28.672 28.672-28.672s28.672 12.288 28.672 28.672v99.328h287.744v-99.328c0-15.36 12.288-28.672 28.672-28.672s28.672 12.288 28.672 28.672v99.328h95.232c15.36 0 28.672 12.288 28.672 28.672s-12.288 28.672-28.672 28.672h-99.328v285.696h99.328zM827.392 763.392v-287.744h-286.72v287.744h286.72zM196.608 763.392h287.744v-287.744h-287.744v287.744zM196.608 132.608v286.72h287.744v-287.744h-287.744zM827.392 132.608h-286.72v286.72h287.744v-286.72z" />
<glyph unicode="&#xe921;" glyph-name="mic" data-tags="mic" d="M512 258.56c104.448 0 189.44 84.992 189.44 189.44v307.2c0 103.424-84.992 188.416-189.44 188.416s-189.44-84.992-189.44-188.416v-307.2c0-105.472 84.992-189.44 189.44-189.44zM378.88 755.2c0 72.704 59.392 133.12 133.12 133.12s133.12-59.392 133.12-133.12v-307.2c0-72.704-59.392-133.12-133.12-133.12s-133.12 59.392-133.12 133.12v307.2zM845.824 455.168c0 15.36-12.288 28.672-28.672 28.672s-28.672-12.288-28.672-28.672c0-152.576-123.904-277.504-277.504-277.504s-276.48 124.928-276.48 277.504c0 15.36-12.288 28.672-28.672 28.672s-28.672-12.288-28.672-28.672c0-174.080 134.144-318.464 305.152-332.8v-114.688h-112.64c-15.36 0-28.672-12.288-28.672-28.672s12.288-28.672 28.672-28.672h282.624c15.36 0 28.672 12.288 28.672 28.672s-12.288 28.672-28.672 28.672h-112.64v114.688c171.008 14.336 306.176 158.72 306.176 332.8z" />
<glyph unicode="&#xe922;" glyph-name="tab" data-tags="tab" d="M827.392 933.376h-629.76c-26.624 0-49.152-21.504-49.152-49.152v-873.472c0-26.624 21.504-49.152 49.152-49.152h629.76c26.624 0 49.152 21.504 49.152 49.152v873.472c-1.024 26.624-22.528 49.152-49.152 49.152zM819.2 18.944h-614.4v858.112h614.4v-858.112zM366.592 777.728h151.552c15.36 0 28.672 12.288 28.672 28.672s-12.288 28.672-28.672 28.672h-151.552c-15.36 0-28.672-12.288-28.672-28.672s12.288-28.672 28.672-28.672zM658.432 805.376c0-18.663-15.129-33.792-33.792-33.792s-33.792 15.129-33.792 33.792c0 18.663 15.129 33.792 33.792 33.792s33.792-15.129 33.792-33.792zM563.2 116.224c0-28.277-22.923-51.2-51.2-51.2s-51.2 22.923-51.2 51.2c0 28.277 22.923 51.2 51.2 51.2s51.2-22.923 51.2-51.2z" />
<glyph unicode="&#xe923;" glyph-name="signal" data-tags="signal" d="M512 650.752c-53.248 0-96.256-43.008-96.256-96.256 0-43.008 28.672-79.872 68.608-92.16v-441.344c0-15.36 12.288-28.672 28.672-28.672s28.672 12.288 28.672 28.672v441.344c39.936 12.288 68.608 49.152 68.608 92.16-2.048 53.248-45.056 96.256-98.304 96.256zM512 514.56c-22.528 0-39.936 18.432-39.936 39.936s18.432 39.936 39.936 39.936c22.528 0 39.936-18.432 39.936-39.936s-17.408-39.936-39.936-39.936zM358.4 554.496c0 40.96 16.384 79.872 45.056 108.544 11.264 11.264 11.264 28.672 0 39.936s-28.672 11.264-39.936 0c-39.936-39.936-61.44-92.16-61.44-148.48s21.504-108.544 61.44-148.48c5.12-5.12 12.288-8.192 19.456-8.192s14.336 3.072 19.456 8.192c11.264 11.264 11.264 28.672 0 39.936-27.648 28.672-44.032 67.584-44.032 108.544zM660.48 702.976c-11.264 11.264-28.672 11.264-39.936 0s-11.264-28.672 0-39.936c28.672-28.672 45.056-67.584 45.056-108.544s-16.384-79.872-45.056-108.544c-11.264-11.264-11.264-28.672 0-39.936 5.12-5.12 12.288-8.192 19.456-8.192s14.336 3.072 19.456 8.192c39.936 39.936 61.44 92.16 61.44 148.48 1.024 56.32-21.504 108.544-60.416 148.48zM222.208 554.496c0 77.824 29.696 149.504 84.992 204.8 11.264 11.264 11.264 28.672 0 39.936s-28.672 11.264-39.936 0c-65.536-65.536-101.376-152.576-101.376-244.736s35.84-179.2 101.376-244.736c5.12-5.12 12.288-8.192 19.456-8.192s14.336 3.072 19.456 8.192c11.264 11.264 11.264 28.672 0 39.936-53.248 55.296-83.968 128-83.968 204.8zM756.736 799.232c-11.264 11.264-28.672 11.264-39.936 0s-11.264-28.672 0-39.936c112.64-112.64 112.64-296.96 0-409.6-11.264-11.264-11.264-28.672 0-39.936 5.12-5.12 12.288-8.192 19.456-8.192s14.336 3.072 19.456 8.192c135.168 135.168 135.168 354.304 1.024 489.472zM86.016 554.496c0 113.664 44.032 220.16 124.928 301.056 11.264 11.264 11.264 28.672 0 39.936s-28.672 11.264-39.936 0c-91.136-91.136-141.312-211.968-141.312-340.992s50.176-249.856 141.312-340.992c5.12-5.12 12.288-8.192 19.456-8.192s14.336 3.072 19.456 8.192c11.264 11.264 11.264 28.672 0 39.936-78.848 80.896-123.904 187.392-123.904 301.056zM852.992 895.488c-11.264 11.264-28.672 11.264-39.936 0s-11.264-28.672 0-39.936c79.872-79.872 124.928-187.392 124.928-301.056s-44.032-220.16-124.928-301.056c-11.264-11.264-11.264-28.672 0-39.936 5.12-5.12 12.288-8.192 19.456-8.192s14.336 3.072 19.456 8.192c91.136 91.136 141.312 211.968 141.312 340.992s-49.152 249.856-140.288 340.992z" />
<glyph unicode="&#xe924;" glyph-name="unlink" data-tags="unlink" d="M468.992 750.080l-132.096 132.096c-70.656 70.656-186.368 70.656-258.048 0-70.656-70.656-70.656-186.368 0-258.048l131.072-132.096c35.84-35.84 81.92-53.248 129.024-53.248s93.184 17.408 129.024 53.248c70.656 69.632 71.68 185.344 1.024 258.048zM249.856 530.944l-131.072 133.12c-49.152 49.152-49.152 129.024 0 178.176 24.576 24.576 57.344 36.864 89.088 36.864s64.512-12.288 89.088-36.864l132.096-132.096c44.032-44.032 48.128-112.64 13.312-160.768l-48.128 48.128c-11.264 11.264-28.672 11.264-39.936 0s-11.264-28.672 0-39.936l46.080-46.080c-48.128-27.648-109.568-20.48-150.528 19.456zM946.176 272.896l-132.096 132.096c-70.656 70.656-186.368 70.656-258.048 0-70.656-70.656-70.656-186.368 0-258.048l131.072-132.096c34.816-34.816 79.872-53.248 129.024-53.248 48.128 0 94.208 19.456 129.024 53.248 70.656 69.632 71.68 185.344 1.024 258.048zM905.216 54.784v0c-24.576-24.576-55.296-36.864-89.088-36.864s-65.536 13.312-89.088 36.864l-131.072 132.096c-40.96 40.96-47.104 102.4-20.48 150.528l45.056-45.056c5.12-5.12 12.288-8.192 19.456-8.192s14.336 3.072 19.456 8.192c11.264 11.264 11.264 28.672 0 39.936l-47.104 47.104c21.504 15.36 47.104 22.528 71.68 22.528 32.768 0 64.512-12.288 89.088-36.864l133.12-132.096c48.128-50.176 48.128-130.048-1.024-178.176zM612.352 718.336c15.36 0 28.672 12.288 28.672 28.672v150.528c0 15.36-12.288 28.672-28.672 28.672s-28.672-13.312-28.672-28.672v-151.552c0-15.36 13.312-27.648 28.672-27.648zM754.688 576c0-15.36 12.288-28.672 28.672-28.672h151.552c15.36 0 28.672 12.288 28.672 28.672s-12.288 28.672-28.672 28.672h-152.576c-15.36-1.024-27.648-13.312-27.648-28.672zM697.344 632.32c7.168 0 14.336 3.072 19.456 8.192l106.496 106.496c11.264 11.264 11.264 28.672 0 39.936s-28.672 11.264-39.936 0l-105.472-106.496c-11.264-11.264-11.264-28.672 0-39.936 5.12-5.12 12.288-8.192 19.456-8.192zM375.808 196.096c-15.36 0-28.672-12.288-28.672-28.672v-151.552c0-15.36 12.288-28.672 28.672-28.672s28.672 12.288 28.672 28.672v152.576c-1.024 15.36-13.312 27.648-28.672 27.648zM233.472 339.456c0 15.36-12.288 28.672-28.672 28.672h-151.552c-15.36 0-28.672-12.288-28.672-28.672s12.288-28.672 28.672-28.672h151.552c15.36 0 28.672 12.288 28.672 28.672zM270.336 273.92l-106.496-107.52c-11.264-11.264-11.264-28.672 0-39.936 5.12-5.12 12.288-8.192 19.456-8.192s14.336 3.072 19.456 8.192l106.496 106.496c11.264 11.264 11.264 28.672 0 39.936-10.24 11.264-27.648 11.264-38.912 1.024z" />
<glyph unicode="&#xe925;" glyph-name="download" data-tags="download" d="M956.416 294.4c-15.36 0-28.672-12.288-28.672-28.672v-235.52h-831.488v235.52c0 15.36-12.288 28.672-28.672 28.672s-28.672-12.288-28.672-28.672v-249.856c0-23.552 21.504-41.984 49.152-41.984h846.848c27.648 0 49.152 18.432 49.152 41.984v249.856c0 15.36-12.288 28.672-27.648 28.672zM661.504 432.64c-7.168 0-14.336-3.072-19.456-8.192l-102.4-102.4v571.392c0 15.36-12.288 28.672-28.672 28.672s-27.648-13.312-27.648-28.672v-571.392l-101.376 102.4c-11.264 11.264-28.672 11.264-39.936 0s-11.264-28.672 0-39.936l168.96-171.008 171.008 171.008c11.264 11.264 11.264 28.672 0 39.936-5.12 5.12-12.288 8.192-20.48 8.192z" />
<glyph unicode="&#xe926;" glyph-name="upload" data-tags="upload" d="M956.416 294.4c-15.36 0-28.672-12.288-28.672-28.672v-235.52h-831.488v235.52c0 15.36-12.288 28.672-28.672 28.672s-28.672-12.288-28.672-28.672v-249.856c0-23.552 21.504-41.984 49.152-41.984h846.848c27.648 0 49.152 18.432 49.152 41.984v249.856c0 15.36-12.288 28.672-27.648 28.672zM361.472 702.976c7.168 0 14.336 3.072 19.456 8.192l102.4 102.4v-572.416c0-15.36 12.288-28.672 28.672-28.672s28.672 12.288 28.672 28.672v572.416l101.376-102.4c11.264-11.264 28.672-11.264 39.936 0s11.264 28.672 0 39.936l-168.96 171.008-171.008-171.008c-11.264-11.264-11.264-28.672 0-39.936 5.12-5.12 12.288-8.192 19.456-8.192z" />
<glyph unicode="&#xe927;" glyph-name="zip" data-tags="zip" d="M842.752 745.984v134.144c0 23.552-19.456 44.032-44.032 44.032h-628.736c-23.552 0-44.032-19.456-44.032-44.032v-583.68c0-5.12 2.048-11.264 6.144-14.336l309.248-304.128c4.096-4.096 9.216-6.144 14.336-6.144h343.040c23.552 0 44.032 19.456 44.032 44.032v445.44c30.72 2.048 55.296 27.648 55.296 58.368v167.936c0 30.72-24.576 56.32-55.296 58.368zM430.080 68.096l-206.848 203.776h206.848v-203.776zM786.432 28.16h-300.032v261.12c0 21.504-16.384 38.912-38.912 38.912h-265.216v539.648h604.16v-121.856h-242.688c-32.768 0-58.368-26.624-58.368-58.368v-167.936c0-32.768 26.624-58.368 58.368-58.368h242.688v-433.152zM722.944 648.704v-92.16c0-2.048-2.048-4.096-4.096-4.096h-17.408c-2.048 0-4.096 2.048-4.096 4.096v92.16c0 2.048 2.048 4.096 4.096 4.096h17.408c2.048 0 4.096-2.048 4.096-4.096zM587.776 631.296c-2.048 0-4.096 2.048-4.096 4.096v12.288c0 2.048 2.048 4.096 4.096 4.096h76.8c2.048 0 4.096-2.048 4.096-4.096v-11.264c0-1.024 0-2.048-1.024-3.072l-52.224-60.416h50.176c2.048 0 4.096-2.048 4.096-4.096v-12.288c0-2.048-2.048-4.096-4.096-4.096h-79.872c-2.048 0-4.096 2.048-4.096 4.096v11.264c0 1.024 0 2.048 1.024 3.072l52.224 61.44h-47.104zM823.296 590.336c-7.168-6.144-17.408-10.24-29.696-10.24h-17.408v-23.552c0-2.048-2.048-4.096-4.096-4.096h-17.408c-2.048 0-4.096 2.048-4.096 4.096v91.136c0 2.048 2.048 4.096 4.096 4.096h38.912c12.288 0 22.528-3.072 29.696-9.216s10.24-14.336 10.24-25.6c1.024-11.264-3.072-20.48-10.24-26.624zM792.576 631.296h-16.384v-30.72h16.384c5.12 0 9.216 1.024 12.288 4.096s4.096 7.168 4.096 12.288c0 5.12-1.024 8.192-4.096 11.264-3.072 2.048-7.168 3.072-12.288 3.072z" />
<glyph unicode="&#xe928;" glyph-name="rss-feed" data-tags="rss-feed" d="M51.2 939.52c-15.36 0-27.648-13.312-27.648-28.672s12.288-27.648 27.648-27.648c495.616 0 898.048-402.432 898.048-898.048 0-15.36 12.288-28.672 28.672-28.672s28.672 12.288 28.672 28.672c-1.024 526.336-429.056 954.368-955.392 954.368zM62.464 719.36c-15.36 0-28.672-12.288-28.672-28.672s12.288-27.648 28.672-27.648c367.616 0 665.6-299.008 665.6-665.6 0-15.36 12.288-28.672 28.672-28.672s28.672 12.288 28.672 28.672c-1.024 398.336-325.632 721.92-722.944 721.92zM58.368 513.536c-15.36 0-28.672-12.288-28.672-28.672s12.288-28.672 28.672-28.672c253.952 0 460.8-206.848 460.8-460.8 0-15.36 12.288-28.672 28.672-28.672s28.672 12.288 28.672 28.672c0 285.696-232.448 518.144-518.144 518.144zM59.392 304.64c-16.384 0-28.672-13.312-28.672-28.672s12.288-28.672 28.672-28.672c137.216 0 249.856-111.616 249.856-249.856 0-15.36 12.288-28.672 28.672-28.672s28.672 12.288 28.672 28.672c-2.048 168.96-139.264 307.2-307.2 307.2zM144.437 85.419c28.792-28.792 28.792-75.474 0-104.266s-75.474-28.792-104.266 0c-28.792 28.792-28.792 75.474 0 104.266s75.474 28.792 104.266 0z" />
<glyph unicode="&#xe929;" glyph-name="warning" data-tags="warning" d="M995.328 170.496l-451.584 602.112c-7.168 10.24-19.456 15.36-31.744 15.36s-23.552-6.144-31.744-15.36l-451.584-602.112c-9.216-12.288-10.24-27.648-4.096-40.96 7.168-13.312 20.48-21.504 34.816-21.504h903.168c15.36 0 28.672 8.192 34.816 21.504 8.192 12.288 6.144 28.672-2.048 40.96zM95.232 163.328l416.768 558.080 416.768-557.056h-833.536zM484.352 532.992v-145.408c0-15.36 12.288-28.672 28.672-28.672s28.672 12.288 28.672 28.672v145.408c0 15.36-12.288 28.672-28.672 28.672s-28.672-12.288-28.672-28.672zM512 292.352c-17.408 0-32.768-14.336-32.768-32.768s14.336-32.768 32.768-32.768 32.768 14.336 32.768 32.768-15.36 32.768-32.768 32.768z" />
<glyph unicode="&#xe92a;" glyph-name="cloud-sync" data-tags="cloud-sync" d="M643.072 320c-13.312 8.192-30.72 5.12-38.912-8.192-17.408-26.624-48.128-43.008-80.896-43.008-25.6 0-49.152 9.216-66.56 26.624h28.672c15.36 0 28.672 12.288 28.672 28.672s-12.288 28.672-28.672 28.672h-81.92c-19.456 0-34.816-16.384-34.816-34.816v-86.016c0-15.36 12.288-28.672 28.672-28.672s28.672 12.288 28.672 28.672v18.432c27.648-23.552 62.464-35.84 98.304-35.84 52.224 0 99.328 25.6 128 67.584 7.168 12.288 4.096 29.696-9.216 37.888zM637.952 594.432c-15.36 0-28.672-12.288-28.672-28.672v-29.696c-26.624 22.528-61.44 34.816-98.304 34.816-57.344 0-110.592-31.744-137.216-83.968-7.168-13.312-2.048-30.72 12.288-37.888 4.096-2.048 8.192-3.072 13.312-3.072 10.24 0 19.456 5.12 24.576 15.36 17.408 32.768 51.2 53.248 88.064 53.248 28.672 0 54.272-11.264 72.704-31.744h-33.792c-15.36 0-28.672-12.288-28.672-28.672s12.288-27.648 28.672-27.648h80.896c19.456 0 35.84 16.384 35.84 34.816v105.472c-2.048 15.36-14.336 27.648-29.696 27.648zM1001.472 382.464c0 73.728-27.648 145.408-77.824 200.704-2.048 2.048-3.072 3.072-5.12 4.096-44.032 46.080-101.376 76.8-163.84 86.016-33.792 56.32-86.016 98.304-148.48 120.832 0 0 0 0 0 0s0 0 0 0 0 0-1.024 0v0c-27.648 10.24-57.344 16.384-91.136 16.384-153.6 0-279.552-122.88-284.672-275.456-114.688-10.24-204.8-107.52-204.8-225.28 0-121.856 98.304-222.208 219.136-224.256 0 0 1.024 0 1.024 0h471.040c1.024 0 2.048 0 3.072 0 156.672 7.168 282.624 137.216 282.624 296.96zM704.512 141.824h-456.704c-93.184 0-168.96 75.776-168.96 168.96s75.776 168.96 168.96 168.96h35.84v46.080c0 125.952 102.4 228.352 229.376 228.352 27.648 0 51.2-4.096 71.68-12.288 0 0 1.024 0 1.024 0v0c54.272-18.432 98.304-57.344 125.952-107.52l7.168-13.312 14.336-2.048c56.32-6.144 108.544-32.768 147.456-74.752l1.024 1.024c0 0 0 0 0-1.024 40.96-45.056 63.488-102.4 63.488-161.792 0-133.12-108.544-240.64-240.64-240.64z" />
<glyph unicode="&#xe92b;" glyph-name="cloud-upload" data-tags="cloud-upload" d="M1001.472 382.464c0 73.728-27.648 145.408-77.824 200.704-2.048 2.048-3.072 3.072-5.12 4.096-44.032 46.080-101.376 76.8-163.84 86.016-33.792 56.32-86.016 98.304-148.48 120.832 0 0 0 0 0 0s0 0 0 0 0 0-1.024 0v0c-27.648 10.24-57.344 16.384-91.136 16.384-153.6 0-279.552-122.88-284.672-275.456-114.688-10.24-204.8-107.52-204.8-225.28 0-121.856 98.304-222.208 219.136-224.256 0 0 1.024 0 1.024 0h471.040c1.024 0 2.048 0 3.072 0 156.672 7.168 282.624 137.216 282.624 296.96zM704.512 141.824h-456.704c-93.184 0-168.96 75.776-168.96 168.96s75.776 168.96 168.96 168.96h35.84v46.080c0 125.952 102.4 228.352 229.376 228.352 27.648 0 51.2-4.096 71.68-12.288 0 0 1.024 0 1.024 0v0c54.272-18.432 98.304-57.344 125.952-107.52l7.168-13.312 14.336-2.048c56.32-6.144 108.544-32.768 147.456-74.752l1.024 1.024c0 0 0 0 0-1.024 40.96-45.056 63.488-102.4 63.488-161.792 0-133.12-108.544-240.64-240.64-240.64zM616.448 474.624l-104.448 80.896-104.448-80.896c-12.288-9.216-14.336-27.648-5.12-39.936 5.12-7.168 14.336-11.264 22.528-11.264 6.144 0 12.288 2.048 17.408 6.144l41.984 32.768v-214.016c0-15.36 12.288-28.672 28.672-28.672s28.672 12.288 28.672 28.672v214.016l41.984-32.768c12.288-9.216 29.696-7.168 39.936 5.12 7.168 12.288 5.12 29.696-7.168 39.936z" />
<glyph unicode="&#xe92c;" glyph-name="cloud-check" data-tags="cloud-check" d="M929.792 584.192c-44.032 48.128-106.496 81.92-172.032 92.16-34.816 57.344-88.064 101.376-150.528 122.88-27.648 11.264-59.392 16.384-94.208 16.384-156.672 0-283.648-124.928-289.792-279.552-116.736-10.24-209.92-108.544-209.92-228.352 0-124.928 100.352-226.304 224.256-228.352v0h468.992c165.888 0 301.056 135.168 301.056 301.056 2.048 75.776-26.624 148.48-77.824 203.776zM708.608 135.68h-464.896c-95.232 0-173.056 77.824-173.056 173.056s77.824 173.056 173.056 173.056h36.864v45.056c0 129.024 104.448 233.472 233.472 233.472 27.648 0 52.224-4.096 74.752-13.312 54.272-19.456 99.328-58.368 126.976-109.568l7.168-13.312 14.336-2.048c58.368-6.144 112.64-33.792 151.552-75.776 41.984-46.080 64.512-104.448 64.512-165.888 0-134.144-109.568-244.736-244.736-244.736zM655.36 517.632l-187.392-180.224-60.416 61.44c-11.264 11.264-28.672 11.264-39.936 0s-11.264-28.672 0-39.936l72.704-73.728c7.168-7.168 17.408-11.264 27.648-11.264s20.48 4.096 27.648 11.264l199.68 192.512c11.264 11.264 11.264 28.672 1.024 39.936-11.264 11.264-29.696 11.264-40.96 0z" />
<glyph unicode="&#xe92d;" glyph-name="cog" data-tags="cog" d="M694.272 458.24c0 3.072 0 5.12-1.024 8.192 0 3.072-1.024 6.144-1.024 9.216s-1.024 7.168-2.048 10.24c0 2.048-1.024 3.072-1.024 5.12 0 1.024 0 1.024-1.024 2.048-1.024 3.072-2.048 7.168-3.072 10.24-1.024 2.048-1.024 5.12-2.048 7.168s-2.048 5.12-3.072 7.168c-1.024 3.072-3.072 6.144-4.096 10.24-1.024 2.048-2.048 3.072-2.048 5.12-2.048 4.096-4.096 8.192-6.144 11.264 0 0 0 1.024-1.024 1.024-1.024 1.024-1.024 2.048-2.048 2.048-2.048 4.096-5.12 7.168-7.168 11.264-1.024 2.048-3.072 3.072-4.096 5.12-2.048 3.072-4.096 5.12-7.168 8.192-2.048 2.048-5.12 5.12-7.168 7.168-1.024 1.024-3.072 3.072-4.096 4.096-3.072 3.072-7.168 6.144-11.264 9.216-1.024 0-1.024 1.024-2.048 1.024-4.096 3.072-9.216 7.168-14.336 9.216 0 0 0 0 0 0s0 0 0 0c-5.12 3.072-9.216 6.144-14.336 8.192 0 0-1.024 0-1.024 1.024-4.096 2.048-8.192 4.096-13.312 6.144-1.024 1.024-3.072 1.024-4.096 2.048-3.072 1.024-7.168 2.048-11.264 3.072-2.048 1.024-4.096 1.024-7.168 2.048-1.024 0-2.048 1.024-3.072 1.024-2.048 1.024-5.12 1.024-7.168 1.024s-5.12 1.024-7.168 1.024c-4.096 1.024-8.192 1.024-12.288 1.024-1.024 0-3.072 0-4.096 0-5.12 0-11.264 0-16.384 0 0 0 0 0 0 0-31.744-1.024-62.464-10.24-89.088-26.624-38.912-24.576-67.584-61.44-79.872-106.496 0-1.024 0-1.024 0-2.048 0-2.048-1.024-3.072-1.024-5.12-1.024-3.072-1.024-6.144-2.048-9.216 0-1.024 0-2.048-1.024-3.072-1.024-5.12-1.024-9.216-2.048-14.336 0-1.024 0-2.048 0-3.072 0-5.12 0-10.24 0-15.36 0-1.024 0-2.048 0-2.048 0-5.12 1.024-11.264 1.024-16.384 0 0 0-1.024 0-1.024 1.024-6.144 2.048-11.264 3.072-17.408 0 0 0-1.024 0-1.024s0 0 0 0c1.024-4.096 2.048-8.192 3.072-12.288 0-2.048 1.024-3.072 2.048-5.12 1.024-3.072 2.048-6.144 3.072-9.216s2.048-5.12 3.072-7.168c1.024-2.048 2.048-4.096 3.072-6.144 2.048-3.072 3.072-6.144 5.12-10.24 1.024-1.024 1.024-2.048 2.048-3.072 0 0 1.024-1.024 1.024-1.024 2.048-4.096 5.12-7.168 7.168-11.264 1.024-1.024 1.024-2.048 2.048-3.072 3.072-4.096 7.168-8.192 10.24-12.288 2.048-2.048 4.096-4.096 6.144-6.144 2.048-1.024 3.072-3.072 5.12-4.096 3.072-2.048 5.12-4.096 8.192-7.168 1.024-1.024 3.072-2.048 4.096-3.072 3.072-2.048 6.144-4.096 8.192-6.144 2.048-1.024 3.072-2.048 5.12-3.072 3.072-2.048 6.144-3.072 8.192-5.12 2.048-1.024 5.12-2.048 7.168-4.096 2.048-1.024 4.096-2.048 7.168-3.072 10.24-5.12 21.504-8.192 32.768-11.264 0 0 0 0 0 0s0 0 0 0c6.144-2.048 13.312-3.072 20.48-3.072 0 0 0 0 1.024 0 7.168-1.024 13.312-1.024 20.48-1.024 13.312 0 27.648 2.048 41.984 5.12 46.080 11.264 84.992 38.912 110.592 77.824 0 0 0 0 0 0 1.024 1.024 1.024 2.048 2.048 3.072 2.048 3.072 3.072 5.12 4.096 8.192 1.024 1.024 1.024 2.048 2.048 3.072 2.048 4.096 4.096 7.168 5.12 11.264 0 1.024 1.024 2.048 1.024 3.072 2.048 4.096 3.072 9.216 5.12 13.312 0 0 0 0 0 1.024 5.12 16.384 8.192 32.768 9.216 50.176 0 1.024 0 2.048 0 4.096 2.048 1.024 2.048 5.12 2.048 10.24zM637.952 443.904c0-8.192-1.024-16.384-3.072-24.576-3.072-12.288-7.168-23.552-13.312-33.792 0 0 0-1.024-1.024-1.024-2.048-3.072-4.096-6.144-6.144-9.216 0 0 0-1.024-1.024-1.024-9.216-13.312-21.504-24.576-35.84-32.768-10.24-6.144-21.504-11.264-33.792-14.336 0 0 0 0 0 0-3.072-1.024-7.168-2.048-11.264-2.048 0 0-1.024 0-1.024 0-4.096-1.024-7.168-1.024-11.264-1.024 0 0-1.024 0-1.024 0-12.288-1.024-24.576 0-36.864 3.072-4.096 1.024-7.168 2.048-11.264 3.072 0 0-1.024 0-1.024 0-3.072 1.024-6.144 2.048-8.192 3.072-1.024 1.024-2.048 1.024-4.096 2.048s-4.096 2.048-6.144 3.072c-2.048 1.024-4.096 2.048-5.12 3.072s-3.072 2.048-4.096 2.048c-2.048 1.024-4.096 3.072-6.144 4.096-1.024 1.024-2.048 2.048-3.072 2.048-2.048 2.048-4.096 3.072-6.144 5.12-1.024 1.024-2.048 2.048-3.072 3.072-2.048 2.048-3.072 3.072-5.12 5.12-1.024 1.024-3.072 3.072-4.096 5.12-1.024 1.024-2.048 3.072-4.096 4.096-1.024 2.048-3.072 4.096-4.096 6.144-1.024 1.024-2.048 3.072-3.072 4.096-1.024 2.048-2.048 4.096-3.072 6.144s-2.048 4.096-3.072 5.12c-1.024 1.024-1.024 2.048-2.048 4.096-1.024 3.072-2.048 5.12-3.072 8.192 0 0 0 1.024 0 1.024-1.024 4.096-2.048 7.168-3.072 11.264 0 0 0 0 0 0 0 5.12 0 9.216-1.024 13.312 0 0 0 0 0 0-1.024 4.096-1.024 8.192-1.024 12.288 0 0 0 0 0 1.024 0 4.096 0 8.192 0 11.264 0 0 0 1.024 0 1.024 0 4.096 1.024 7.168 1.024 11.264 0 0 0 1.024 0 1.024 8.192 48.128 44.032 89.088 95.232 100.352 11.264 3.072 23.552 4.096 34.816 3.072 1.024 0 3.072 0 4.096 0 3.072 0 5.12-1.024 8.192-1.024 2.048 0 4.096-1.024 6.144-1.024s5.12-1.024 7.168-2.048c1.024 0 2.048-1.024 3.072-1.024 3.072-1.024 6.144-2.048 9.216-3.072 0 0 1.024 0 1.024-1.024 7.168-3.072 14.336-6.144 21.504-10.24 3.072-2.048 7.168-4.096 10.24-7.168 0 0 0 0 0 0 3.072-2.048 6.144-4.096 8.192-7.168 1.024-1.024 2.048-2.048 3.072-2.048 2.048-2.048 4.096-4.096 5.12-5.12 1.024-2.048 3.072-3.072 4.096-5.12 1.024-1.024 2.048-2.048 3.072-4.096 2.048-2.048 3.072-5.12 5.12-7.168 1.024-1.024 1.024-2.048 2.048-3.072 2.048-3.072 3.072-5.12 4.096-8.192 1.024-1.024 1.024-2.048 2.048-3.072 1.024-2.048 2.048-4.096 3.072-7.168 1.024-2.048 1.024-3.072 2.048-5.12s1.024-4.096 2.048-5.12c1.024-2.048 1.024-4.096 2.048-7.168 0-2.048 1.024-3.072 1.024-5.12s1.024-4.096 1.024-6.144c0-2.048 1.024-5.12 1.024-7.168 0-1.024 0-3.072 0-4.096 0-2.048 0-6.144 0-10.24 0 0 0 0 0 0zM963.584 335.36l-94.208 53.248c3.072 21.504 5.12 40.96 5.12 58.368 0 20.48-2.048 40.96-5.12 59.392l95.232 54.272c9.216 5.12 15.36 13.312 18.432 23.552s1.024 20.48-4.096 29.696l-89.088 154.624c-10.24 18.432-33.792 24.576-52.224 14.336l-95.232-54.272c-29.696 24.576-64.512 44.032-101.376 58.368v109.568c0 21.504-17.408 38.912-38.912 38.912h-178.176c-21.504 0-38.912-17.408-38.912-38.912v-110.592c-37.888-14.336-71.68-34.816-101.376-58.368l-95.232 54.272c-18.432 10.24-41.984 4.096-52.224-14.336l-90.112-154.624c-5.12-9.216-6.144-19.456-4.096-29.696 3.072-10.24 9.216-18.432 18.432-23.552l95.232-53.248c-3.072-17.408-5.12-37.888-5.12-58.368 0-19.456 1.024-39.936 4.096-58.368l-96.256-55.296c-9.216-5.12-15.36-13.312-18.432-23.552s-1.024-20.48 4.096-28.672l89.088-154.624c10.24-18.432 33.792-24.576 52.224-14.336l95.232 54.272c29.696-24.576 64.512-44.032 101.376-58.368v-109.568c0-21.504 17.408-38.912 38.912-38.912h178.176c21.504 0 38.912 17.408 38.912 38.912v110.592c37.888 14.336 71.68 34.816 101.376 58.368l95.232-54.272c18.432-10.24 41.984-4.096 52.224 14.336l89.088 154.624c5.12 9.216 6.144 19.456 4.096 29.696s-7.168 17.408-16.384 22.528zM848.896 171.52l-115.712 66.56-15.36-14.336c-31.744-29.696-71.68-53.248-115.712-67.584l-19.456-6.144v-133.12h-142.336v132.096l-19.456 6.144c-44.032 14.336-83.968 37.888-115.712 67.584l-15.36 14.336-115.712-66.56-71.68 123.904 114.688 65.536-4.096 19.456c-4.096 21.504-6.144 44.032-6.144 67.584 0 24.576 2.048 47.104 7.168 66.56l5.12 20.48-115.712 65.536 71.68 124.928 115.712-66.56 15.36 14.336c31.744 29.696 71.68 53.248 115.712 67.584l19.456 6.144v133.12h142.336v-132.096l19.456-6.144c44.032-14.336 83.968-37.888 115.712-67.584l15.36-14.336 115.712 66.56 71.68-123.904-115.712-66.56 5.12-20.48c5.12-19.456 7.168-41.984 7.168-66.56 0-19.456-2.048-40.96-8.192-67.584l-4.096-19.456 113.664-64.512-70.656-124.928z" />
<glyph unicode="&#xe92e;" glyph-name="dashboard" data-tags="dashboard" d="M1011.712 239.104c-20.48 274.432-239.616 489.472-499.712 489.472s-479.232-215.040-499.712-489.472c-1.024-18.432 5.12-35.84 17.408-50.176 12.288-13.312 29.696-21.504 48.128-21.504h868.352c18.432 0 35.84 7.168 48.128 21.504 12.288 13.312 18.432 31.744 17.408 50.176zM953.344 227.84c-1.024-1.024-3.072-3.072-7.168-3.072h-380.928l-43.008 133.12c-3.072 9.216-16.384 9.216-19.456 0l-43.008-133.12h-381.952c-3.072 0-6.144 2.048-7.168 3.072s-3.072 4.096-2.048 7.168c18.432 244.736 212.992 436.224 443.392 436.224s424.96-191.488 443.392-437.248c0-3.072-1.024-5.12-2.048-6.144zM512 589.312c-15.36 0-28.672-12.288-28.672-28.672v-36.864c0-15.36 12.288-28.672 28.672-28.672s28.672 12.288 28.672 28.672v36.864c0 16.384-13.312 28.672-28.672 28.672zM761.856 468.48l-25.6-25.6c-11.264-11.264-11.264-28.672 0-39.936 5.12-5.12 12.288-8.192 19.456-8.192s14.336 3.072 19.456 8.192l25.6 25.6c11.264 11.264 11.264 28.672 0 39.936-10.24 11.264-27.648 11.264-38.912 0zM262.144 468.48c-10.24 11.264-28.672 12.288-39.936 1.024-11.264-10.24-12.288-28.672-1.024-39.936l24.576-25.6c5.12-6.144 13.312-9.216 20.48-9.216s14.336 2.048 19.456 7.168c11.264 10.24 12.288 28.672 1.024 39.936l-24.576 26.624z" />
<glyph unicode="&#xe92f;" glyph-name="database" data-tags="database" d="M964.608 761.344l-3.072 5.12c-31.744 101.376-203.776 163.84-449.536 163.84h-13.312c-40.96-1.024-83.968-3.072-128-8.192-40.96-6.144-75.776-11.264-112.64-21.504-28.672-8.192-61.44-18.432-91.136-33.792-32.768-15.36-69.632-36.864-92.16-74.752l-8.192-16.384c-3.072-4.096-10.24-12.288-10.24-24.576v-590.848c0-4.096-1.024-9.216 1.024-16.384 0-2.048 1.024-4.096 2.048-7.168 26.624-101.376 212.992-171.008 452.608-171.008 203.776 0 423.936 52.224 453.632 169.984l2.048 10.24v610.304l-3.072 5.12zM911.36 484.864c-130.048-30.72-264.192-46.080-399.36-46.080s-269.312 15.36-399.36 46.080v161.792c130.048-29.696 264.192-45.056 399.36-45.056s269.312 15.36 399.36 45.056v-161.792zM112.64 426.496c130.048-29.696 264.192-45.056 399.36-45.056s269.312 15.36 399.36 45.056v-161.792c-130.048-30.72-264.192-46.080-399.36-46.080s-269.312 15.36-399.36 46.080v161.792zM124.928 765.44c14.336 23.552 40.96 38.912 67.584 51.2 26.624 13.312 56.32 22.528 80.896 29.696 33.792 9.216 66.56 14.336 105.472 19.456 39.936 5.12 81.92 7.168 121.856 8.192h11.264v-1.024c246.784 0 378.88-65.536 396.288-125.952l1.024-3.072 2.048-3.072v-35.84c-130.048-30.72-264.192-46.080-399.36-46.080s-269.312 15.36-399.36 46.080v37.888c2.048 2.048 3.072 5.12 4.096 8.192l8.192 14.336zM910.336 147.968c-19.456-70.656-193.536-125.952-398.336-125.952-228.352 0-381.952 65.536-398.336 128 0 0 0 1.024-1.024 2.048v4.096c0 1.024 0 3.072 0 4.096v46.080c130.048-29.696 264.192-45.056 399.36-45.056s269.312 15.36 399.36 45.056v-54.272l-1.024-4.096z" />
<glyph unicode="&#xe930;" glyph-name="control-panel" data-tags="panel" d="M841.728 930.304h-659.456c-30.72 0-56.32-25.6-56.32-56.32v-850.944c0-30.72 25.6-56.32 56.32-56.32h660.48c30.72 0 56.32 25.6 56.32 56.32v849.92c-1.024 31.744-25.6 57.344-57.344 57.344zM841.728-5.632v0zM841.728 22.016h-660.48v850.944h660.48v-850.944zM352.256 663.040h44.032v-22.528c0-15.36 12.288-28.672 28.672-28.672s28.672 12.288 28.672 28.672v22.528h220.16c15.36 0 28.672 12.288 28.672 28.672s-12.288 28.672-28.672 28.672h-221.184v22.528c0 15.36-12.288 28.672-28.672 28.672s-28.672-12.288-28.672-28.672v-22.528h-44.032c-15.36 0-28.672-12.288-28.672-28.672s14.336-28.672 29.696-28.672zM352.256 409.088h234.496v-22.528c0-15.36 12.288-28.672 28.672-28.672s28.672 12.288 28.672 28.672v22.528h29.696c15.36 0 28.672 12.288 28.672 28.672s-12.288 28.672-28.672 28.672h-29.696v22.528c0 15.36-12.288 28.672-28.672 28.672s-28.672-12.288-28.672-28.672v-22.528h-234.496c-15.36 0-28.672-12.288-28.672-28.672s13.312-28.672 28.672-28.672zM352.256 155.136h81.92v-22.528c0-15.36 12.288-28.672 28.672-28.672s28.672 12.288 28.672 28.672v22.528h182.272c15.36 0 28.672 12.288 28.672 28.672s-12.288 28.672-28.672 28.672h-183.296v22.528c0 15.36-12.288 28.672-28.672 28.672s-28.672-12.288-28.672-28.672v-22.528h-81.92c-15.36 0-28.672-12.288-28.672-28.672s14.336-28.672 29.696-28.672z" />
<glyph unicode="&#xe931;" glyph-name="plug" data-tags="plug" d="M736.256 806.4h-47.104v91.136c0 15.36-12.288 28.672-28.672 28.672s-28.672-12.288-28.672-28.672v-91.136h-238.592v91.136c0 15.36-12.288 28.672-28.672 28.672s-28.672-12.288-28.672-28.672v-91.136h-49.152c-45.056 0-82.944-37.888-82.944-82.944v-122.88c1.024-159.744 123.904-291.84 280.576-306.176v-295.936c0-15.36 12.288-28.672 28.672-28.672 15.36 0 28.672 12.288 28.672 28.672v295.936c71.68 6.144 138.24 37.888 190.464 89.088 56.32 58.368 88.064 136.192 87.040 217.088v122.88c0 45.056-37.888 82.944-82.944 82.944zM762.88 600.576c1.024-66.56-24.576-130.048-71.68-177.152-47.104-48.128-110.592-73.728-178.176-73.728-138.24 0-251.904 112.64-251.904 251.904v122.88c0 14.336 12.288 26.624 26.624 26.624h448.512c14.336 0 26.624-12.288 26.624-26.624v-123.904z" />
<glyph unicode="&#xe932;" glyph-name="power-switch" data-tags="power-switch" d="M629.76 727.552c-18.432 6.144-36.864-7.168-36.864-26.624v0c0-12.288 8.192-22.528 19.456-26.624 135.168-44.032 232.448-174.080 225.28-324.608-7.168-163.84-138.24-297.984-302.080-309.248-189.44-13.312-348.16 137.216-348.16 324.608 0 143.36 93.184 265.216 223.232 308.224 11.264 4.096 19.456 14.336 19.456 26.624 0 19.456-18.432 32.768-36.864 26.624-161.792-54.272-276.48-214.016-259.072-397.312 16.384-184.32 166.912-331.776 351.232-345.088 223.232-16.384 409.6 160.768 409.6 380.928-1.024 168.96-112.64 312.32-265.216 362.496zM510.976 479.744c15.36 0 28.672 12.288 28.672 28.672v376.832c0 15.36-12.288 28.672-28.672 28.672s-28.672-12.288-28.672-28.672v-376.832c0-16.384 12.288-28.672 28.672-28.672z" />
<glyph unicode="&#xe933;" glyph-name="printer" data-tags="printer" d="M884.736 753.152h-78.848v131.072c0 26.624-22.528 49.152-49.152 49.152h-488.448c-26.624 0-49.152-22.528-49.152-49.152v-131.072h-79.872c-26.624 0-49.152-22.528-49.152-49.152v-319.488c0-26.624 22.528-49.152 49.152-49.152h79.872v-324.608c0-26.624 22.528-49.152 49.152-49.152h487.424c25.6 0 47.104 19.456 50.176 46.080v328.704h77.824c26.624 0 49.152 22.528 49.152 49.152v318.464c1.024 26.624-21.504 49.152-48.128 49.152zM275.456 878.080h474.112v-123.904h-474.112v123.904zM749.568 17.92h-474.112v317.44h474.112v-317.44zM877.568 391.68h-731.136v305.152h731.136v-305.152zM419.84 222.72h184.32c15.36 0 28.672 12.288 28.672 28.672s-12.288 28.672-28.672 28.672h-184.32c-15.36 0-28.672-12.288-28.672-28.672s13.312-28.672 28.672-28.672zM419.84 83.456h184.32c15.36 0 28.672 12.288 28.672 28.672s-12.288 28.672-28.672 28.672h-184.32c-15.36 0-28.672-12.288-28.672-28.672s13.312-28.672 28.672-28.672zM833.536 603.648c0-21.491-17.421-38.912-38.912-38.912s-38.912 17.421-38.912 38.912c0 21.491 17.421 38.912 38.912 38.912s38.912-17.421 38.912-38.912z" />
<glyph unicode="&#xe934;" glyph-name="layers" data-tags="layers" d="M956.416 260.608l-120.832 69.632 117.76 65.536c14.336 6.144 22.528 20.48 23.552 35.84 1.024 17.408-8.192 32.768-22.528 40.96l-132.096 76.8 133.12 72.704c14.336 6.144 22.528 20.48 23.552 35.84 1.024 17.408-8.192 32.768-22.528 40.96l-411.648 239.616c-14.336 9.216-31.744 9.216-45.056 0l-432.128-239.616c-14.336-8.192-22.528-22.528-22.528-38.912s8.192-30.72 22.528-38.912l137.216-71.68-136.192-75.776c-14.336-8.192-22.528-22.528-22.528-38.912s8.192-30.72 23.552-39.936l122.88-64.512-123.904-68.608c-13.312-8.192-22.528-22.528-22.528-38.912s8.192-30.72 22.528-38.912l431.104-226.304c6.144-4.096 14.336-7.168 22.528-7.168 7.168 0 15.36 2.048 22.528 6.144l411.648 226.304c14.336 6.144 22.528 20.48 23.552 35.84 0 17.408-8.192 32.768-23.552 41.984zM521.216 886.272l388.096-225.28-389.12-214.016-406.528 212.992 407.552 226.304zM264.192 517.632l235.52-122.88c6.144-4.096 14.336-6.144 21.504-6.144 9.216 0 17.408 3.072 25.6 9.216l220.16 120.832 142.336-82.944-387.072-215.040-407.552 215.040 149.504 81.92zM522.24 9.728l-407.552 212.992 136.192 75.776 247.808-131.072c6.144-5.12 14.336-7.168 22.528-7.168 7.168 0 15.36 2.048 22.528 6.144l234.496 130.048 132.096-73.728-388.096-212.992z" />
<glyph unicode="&#xe935;" glyph-name="link" data-tags="link" d="M945.152 271.872l-132.096 132.096c-34.816 34.816-79.872 53.248-129.024 53.248-40.96 0-79.872-13.312-111.616-37.888l-89.088 90.112c24.576 31.744 37.888 70.656 37.888 111.616 0 49.152-18.432 94.208-53.248 129.024l-132.096 131.072c-33.792 34.816-79.872 53.248-129.024 53.248s-94.208-18.432-128-53.248c-34.816-33.792-53.248-79.872-53.248-128s18.432-94.208 53.248-129.024l132.096-132.096c34.816-34.816 79.872-53.248 129.024-53.248 36.864 0 72.704 11.264 102.4 31.744l92.16-92.16c-20.48-29.696-31.744-65.536-31.744-102.4 0-49.152 18.432-94.208 53.248-129.024l132.096-132.096c35.84-35.84 81.92-53.248 129.024-53.248s93.184 17.408 129.024 53.248c70.656 70.656 70.656 186.368-1.024 257.024zM338.944 495.104c-33.792 0-65.536 13.312-89.088 36.864l-131.072 132.096c-24.576 23.552-36.864 55.296-36.864 89.088s13.312 65.536 36.864 89.088c23.552 23.552 55.296 35.84 88.064 35.84 33.792 0 65.536-13.312 89.088-36.864l132.096-132.096c23.552-23.552 36.864-55.296 36.864-89.088 0-25.6-8.192-50.176-22.528-71.68l-48.128 48.128c-11.264 11.264-28.672 11.264-39.936 0s-11.264-28.672 0-39.936l47.104-47.104c-18.432-9.216-39.936-14.336-62.464-14.336zM905.216 54.784c-49.152-49.152-129.024-49.152-178.176 0l-131.072 132.096c-23.552 23.552-36.864 55.296-36.864 89.088 0 22.528 6.144 43.008 16.384 62.464l45.056-45.056c5.12-5.12 12.288-8.192 19.456-8.192s14.336 3.072 19.456 8.192c11.264 11.264 11.264 28.672 0 39.936l-47.104 47.104c20.48 14.336 45.056 22.528 71.68 22.528 33.792 0 65.536-13.312 89.088-36.864l132.096-132.096c49.152-51.2 49.152-131.072 0-179.2z" />
<glyph unicode="&#xe936;" glyph-name="laptop" data-tags="laptop" d="M976.896 95.744l-65.536 304.128c-2.048 7.168-5.12 14.336-9.216 19.456 4.096 7.168 6.144 15.36 6.144 23.552v366.592c0 26.624-21.504 49.152-49.152 49.152h-696.32c-26.624 0-49.152-21.504-49.152-49.152v-365.568c0-8.192 2.048-16.384 6.144-23.552-4.096-6.144-8.192-12.288-9.216-19.456l-62.464-305.152c-3.072-14.336 1.024-29.696 10.24-40.96s23.552-18.432 37.888-18.432h834.56c14.336 0 28.672 6.144 37.888 18.432s11.264 26.624 8.192 40.96zM512 846.336c10.24 0 17.408-8.192 17.408-17.408s-7.168-17.408-17.408-17.408c-10.24 0-17.408 8.192-17.408 17.408s8.192 17.408 17.408 17.408zM171.008 801.28h681.984v-350.208h-681.984v350.208zM104.448 93.696l60.416 288.768h693.248l61.44-288.768h-815.104z" />
<glyph unicode="&#xe937;" glyph-name="layout" data-tags="layout" d="M929.792 924.16h-835.584c-31.744 0-58.368-26.624-58.368-58.368v-835.584c0-31.744 26.624-58.368 58.368-58.368h834.56c30.72 0 57.344 24.576 59.392 56.32v837.632c0 31.744-26.624 58.368-58.368 58.368zM94.208 867.84h835.584c1.024 0 2.048-1.024 2.048-2.048v-149.504h-839.68v149.504c0 1.024 1.024 2.048 2.048 2.048zM373.76 659.968h558.080v-287.744h-558.080v287.744zM92.16 30.208v629.76h225.28v-631.808h-223.232c-1.024 0-2.048 1.024-2.048 2.048zM928.768 28.16h-555.008v287.744h558.080v-283.648c0-2.048-2.048-4.096-3.072-4.096z" />
<glyph unicode="&#xe938;" glyph-name="microphone" data-tags="microphone" d="M710.656 934.4c-157.696 0-286.72-129.024-286.72-286.72 0-28.672 4.096-57.344 12.288-83.968l-371.712-371.712c-25.6-25.6-38.912-59.392-38.912-95.232s14.336-69.632 38.912-95.232v0c26.624-26.624 60.416-39.936 95.232-39.936s68.608 13.312 95.232 39.936l371.712 371.712c26.624-8.192 54.272-12.288 83.968-12.288 158.72 0 287.744 129.024 287.744 287.744s-129.024 285.696-287.744 285.696zM104.448 40.448v0c-14.336 15.36-22.528 34.816-22.528 56.32s8.192 40.96 22.528 55.296l9.216 9.216 111.616-110.592-9.216-9.216c-30.72-31.744-80.896-31.744-111.616-1.024zM265.216 90.624l-110.592 110.592 294.912 294.912 111.616-111.616-295.936-293.888zM480.256 647.68c0 24.576 4.096 49.152 11.264 71.68l289.792-291.84c-22.528-7.168-46.080-11.264-70.656-11.264-126.976 0-230.4 103.424-230.4 231.424zM835.584 453.12l-318.464 319.488c40.96 63.488 112.64 105.472 193.536 105.472 128 0 231.424-103.424 231.424-230.4 0-81.92-41.984-153.6-106.496-194.56z" />
<glyph unicode="&#xe939;" glyph-name="magnet" data-tags="magnet" d="M880.64 815.616c-72.704 73.728-169.984 114.688-273.408 114.688 0 0-1.024 0-1.024 0-104.448 0-201.728-40.96-275.456-114.688l-286.72-284.672c-19.456-19.456-19.456-50.176 0-68.608l145.408-145.408c9.216-9.216 21.504-14.336 34.816-14.336s25.6 5.12 34.816 14.336l268.288 268.288c32.768 32.768 83.968 35.84 117.76 8.192 19.456-15.36 29.696-37.888 31.744-62.464 1.024-24.576-8.192-48.128-24.576-64.512l-271.36-272.384c-19.456-19.456-19.456-50.176 0-68.608l145.408-145.408c9.216-9.216 21.504-14.336 34.816-14.336s25.6 5.12 34.816 14.336l284.672 285.696c150.528 150.528 150.528 397.312 0 549.888zM224.256 360.96l-134.144 135.168 133.12 133.12 135.168-135.168-134.144-133.12zM561.152 25.088l-135.168 135.168 133.12 133.12 135.168-135.168-133.12-133.12zM840.704 304.64l-106.496-106.496-135.168 135.168 92.16 92.16c28.672 28.672 43.008 67.584 40.96 107.52s-20.48 77.824-51.2 103.424c-56.32 46.080-141.312 40.96-193.536-11.264l-90.112-90.112-134.144 134.144 106.496 106.496c63.488 63.488 147.456 98.304 236.544 98.304 0 0 1.024 0 1.024 0 89.088 0 172.032-34.816 233.472-98.304 129.024-130.048 129.024-342.016 0-471.040z" />
<glyph unicode="&#xe93a;" glyph-name="mouse" data-tags="mouse" d="M512 935.424c-195.584 0-355.328-158.72-355.328-354.304v-266.24c0-195.584 159.744-355.328 355.328-355.328 96.256 0 186.368 36.864 252.928 105.472 66.56 66.56 102.4 155.648 102.4 249.856v266.24c0 195.584-159.744 354.304-355.328 354.304zM811.008 581.12v-26.624h-266.24v323.584c149.504-16.384 266.24-143.36 266.24-296.96zM488.448 878.080v-324.608h-275.456v27.648c0 156.672 121.856 285.696 275.456 296.96zM724.992 104.96c-56.32-57.344-132.096-89.088-212.992-89.088-164.864 0-299.008 134.144-299.008 299.008v183.296h598.016v-183.296c1.024-78.848-29.696-153.6-86.016-209.92z" />
<glyph unicode="&#xe93b;" glyph-name="share-alt" data-tags="share-alt" d="M220.16 562.688c7.168 0 14.336 3.072 19.456 8.192 11.264 11.264 11.264 28.672 0 39.936l-97.28 99.328h204.8c93.184 0 168.96-75.776 168.96-168.96v-257.024c0-15.36 12.288-28.672 28.672-28.672s28.672 12.288 28.672 28.672v257.024c0 123.904-101.376 225.28-225.28 225.28h-204.8l96.256 96.256c11.264 11.264 11.264 28.672 0 39.936s-28.672 11.264-39.936 0l-163.84-164.864 163.84-166.912c6.144-5.12 13.312-8.192 20.48-8.192zM954.368 321.024c-13.312-3.072-22.528-15.36-22.528-28.672v-250.88h-817.152v250.88c0 13.312-9.216 25.6-22.528 28.672-18.432 3.072-33.792-10.24-33.792-27.648v-287.744c0-11.264 9.216-20.48 20.48-20.48h888.832c11.264 0 20.48 9.216 20.48 20.48v287.744c0 17.408-15.36 30.72-33.792 27.648z" />
<glyph unicode="&#xe93c;" glyph-name="bluetooth" data-tags="bluetooth" d="M822.272 250.368l-301.056 192.512c-3.072 2.048-5.12 3.072-8.192 4.096l308.224 198.656c0 0 1.024 1.024 1.024 1.024 14.336 10.24 22.528 25.6 22.528 43.008 0 18.432-9.216 34.816-24.576 44.032l-299.008 193.536c-16.384 10.24-36.864 11.264-54.272 2.048-16.384-9.216-26.624-27.648-26.624-47.104v-385.024c0 0 0-1.024 0-1.024l-219.136 141.312c-13.312 8.192-30.72 5.12-38.912-8.192s-5.12-30.72 8.192-38.912l220.16-142.336-218.112-139.264c-13.312-8.192-16.384-25.6-8.192-38.912 5.12-8.192 14.336-13.312 23.552-13.312 5.12 0 10.24 1.024 15.36 4.096l217.088 140.288c0-1.024 0-1.024 0-2.048v-385.024c0-19.456 10.24-36.864 27.648-46.080 8.192-4.096 16.384-6.144 25.6-6.144 10.24 0 19.456 3.072 28.672 8.192l300.032 191.488c15.36 10.24 24.576 26.624 24.576 44.032 0 18.432-9.216 35.84-24.576 45.056zM496.64 876.032l290.816-186.368-290.816-186.368v372.736zM496.64 19.968v372.736l290.816-186.368-290.816-186.368z" />
<glyph unicode="&#xe93d;" glyph-name="crop" data-tags="crop" d="M977.92 105.984h-66.56v702.464l47.104 47.104c11.264 11.264 11.264 28.672 0 39.936s-28.672 11.264-39.936 0l-48.128-49.152h-700.416v67.584c0 15.36-12.288 28.672-28.672 28.672s-27.648-13.312-27.648-28.672v-67.584h-64.512c-15.36 0-28.672-12.288-28.672-28.672s12.288-28.672 28.672-28.672h64.512v-684.032h-67.584c-15.36 0-28.672-12.288-28.672-28.672s12.288-28.672 28.672-28.672h67.584v-65.536c0-15.36 12.288-28.672 28.672-28.672s28.672 12.288 28.672 28.672v66.56h684.032v-66.56c0-15.36 12.288-28.672 28.672-28.672s28.672 12.288 28.672 28.672v67.584h65.536c15.36 0 28.672 12.288 28.672 28.672s-13.312 27.648-28.672 27.648zM169.984 145.92v644.096h644.096l-644.096-644.096zM207.872 104.96l647.168 647.168v-647.168h-647.168z" />
<glyph unicode="&#xe93e;" glyph-name="heart-filled" data-tags="heart-filled" d="M512 38.4l398.336 401.408c48.128 48.128 71.68 109.568 71.68 173.056s-24.576 125.952-72.704 173.056c-95.232 95.232-252.928 95.232-348.16 0l-51.2-51.2-51.2 51.2c-48.128 46.080-110.592 70.656-173.056 70.656s-124.928-22.528-173.056-70.656c-95.232-95.232-95.232-252.928 0-348.16l399.36-399.36z" />
<glyph unicode="&#xe93f;" glyph-name="cut" data-tags="cut" d="M947.2 203.264c-16.384 44.032-48.128 78.848-90.112 98.304s-90.112 21.504-133.12 6.144-74.752-46.080-94.208-82.944l-87.040 236.544 155.648 428.032c5.12 14.336-2.048 30.72-16.384 35.84s-30.72-2.048-35.84-16.384l-133.12-365.568-133.12 365.568c-5.12 14.336-21.504 22.528-35.84 16.384-14.336-5.12-22.528-21.504-16.384-35.84l155.648-428.032-87.040-238.592c-19.456 37.888-52.224 68.608-95.232 84.992-90.112 32.768-190.464-14.336-224.256-104.448-32.768-90.112 14.336-190.464 104.448-224.256 19.456-7.168 39.936-10.24 59.392-10.24 69.632 0 135.168 41.984 162.816 110.592 1.024 2.048 109.568 300.032 109.568 300.032s104.448-289.792 106.496-294.912c16.384-44.032 48.128-78.848 90.112-98.304 23.552-11.264 48.128-16.384 73.728-16.384 20.48 0 39.936 3.072 59.392 10.24 44.032 16.384 78.848 48.128 98.304 90.112 20.48 41.984 22.528 90.112 6.144 133.12zM200.704 32.256c-61.44 22.528-93.184 90.112-70.656 151.552 17.408 48.128 62.464 77.824 111.616 77.824 13.312 0 26.624-2.048 39.936-7.168 29.696-11.264 53.248-32.768 66.56-61.44s14.336-60.416 4.096-90.112c-22.528-61.44-91.136-93.184-151.552-70.656zM823.296 33.28c-30.72-11.264-64.512-9.216-94.208 6.144-90.112 46.080-81.92 182.272 13.312 216.064 13.312 5.12 26.624 7.168 40.96 7.168 17.408 0 33.792-4.096 50.176-11.264 28.672-13.312 50.176-36.864 61.44-66.56 21.504-61.44-10.24-130.048-71.68-151.552z" />
<glyph unicode="&#xe940;" glyph-name="protection" data-tags="protection" d="M504.832 912.896l-352.256-102.4c-9.216-2.048-14.336-10.24-14.336-19.456v-291.84c0-232.448 147.456-439.296 366.592-514.048l9.216-3.072 9.216 3.072c217.088 74.752 363.52 281.6 363.52 514.048v290.816c0 9.216-6.144 17.408-14.336 19.456l-356.352 102.4c-4.096 2.048-7.168 2.048-11.264 1.024zM830.464 499.2c0-204.8-126.976-387.072-318.464-457.728-190.464 69.632-318.464 251.904-318.464 457.728v264.192l317.44 92.16 319.488-92.16c0 0 0-264.192 0-264.192zM345.088 396.8c-11.264 11.264-28.672 11.264-39.936 0s-11.264-28.672 0-39.936l71.68-71.68c7.168-7.168 17.408-11.264 27.648-11.264s19.456 4.096 27.648 11.264l288.768 288.768c11.264 11.264 11.264 28.672 0 39.936s-28.672 11.264-39.936 0l-277.504-276.48-58.368 59.392z" />
<glyph unicode="&#xe941;" glyph-name="bolt-alt" data-tags="bolt-alt" d="M292.864-32.256c-6.144 0-13.312 2.048-19.456 5.12-17.408 9.216-24.576 28.672-18.432 48.128l137.216 408.576h-133.12c-13.312 0-25.6 7.168-33.792 17.408s-8.192 25.6-3.072 37.888l179.2 419.84c6.144 14.336 20.48 24.576 36.864 24.576h326.656c13.312 0 26.624-7.168 33.792-18.432s8.192-25.6 3.072-37.888l-95.232-212.992h52.224c15.36 0 28.672-8.192 35.84-22.528 7.168-13.312 5.12-29.696-4.096-41.984l-466.944-612.352c-8.192-10.24-19.456-15.36-30.72-15.36zM283.648 484.864h186.368l-130.048-388.096 386.048 506.88h-106.496l120.832 268.288h-291.84l-164.864-387.072z" />
<glyph unicode="&#xe942;" glyph-name="bolt" data-tags="bolt" d="M391.168-50.688c-11.264 0-22.528 6.144-28.672 16.384-5.12 8.192-6.144 18.432-3.072 26.624l91.136 387.072h-199.68c-12.288 0-22.528 6.144-28.672 15.36-6.144 10.24-7.168 22.528-1.024 32.768l2.048 3.072 338.944 497.664c9.216 16.384 23.552 18.432 28.672 18.432 11.264 0 22.528-6.144 28.672-16.384 5.12-8.192 6.144-17.408 3.072-26.624l-70.656-311.296 222.208-1.024c11.264 0 22.528-6.144 28.672-15.36 6.144-10.24 7.168-22.528 1.024-32.768l-2.048-3.072-384-577.536-2.048-2.048c-3.072-3.072-11.264-11.264-24.576-11.264zM292.864 435.712h185.344c18.432 0 32.768-15.36 32.768-34.816v-3.072l-69.632-296.96 288.768 434.176-207.872 1.024c-18.432 0-32.768 15.36-32.768 34.816v3.072l51.2 224.256-247.808-362.496zM773.12 535.040c0 0 0 0 0 0v0zM523.264 592.384v0c1.024 0 0 0 0 0z" />
<glyph unicode="&#xe943;" glyph-name="infinite" data-tags="infinite" d="M771.072 216.576c-75.776 0-146.432 36.864-190.464 97.28v1.024l-68.608 89.088-72.704-95.232c-45.056-58.368-112.64-92.16-186.368-92.16-129.024 0-234.496 105.472-234.496 234.496s105.472 234.496 234.496 234.496c74.752 0 146.432-36.864 190.464-97.28l68.608-90.112 63.488 82.944c16.384 21.504 38.912 48.128 69.632 67.584 37.888 23.552 80.896 36.864 125.952 36.864 129.024 0 234.496-105.472 234.496-234.496 0-130.048-105.472-234.496-234.496-234.496zM623.616 350.72l2.048-3.072c33.792-47.104 88.064-74.752 145.408-74.752 98.304 0 178.176 79.872 178.176 178.176s-79.872 178.176-178.176 178.176c-33.792 0-66.56-9.216-95.232-27.648-23.552-15.36-40.96-35.84-55.296-54.272l-72.704-95.232 75.776-101.376zM395.264 343.552l81.92 106.496-78.848 103.424c-33.792 47.104-88.064 74.752-145.408 74.752-98.304 0-178.176-79.872-178.176-178.176s79.872-178.176 178.176-178.176c56.32 1.024 107.52 26.624 142.336 71.68z" />
<glyph unicode="&#xe944;" glyph-name="hand" data-tags="hand" d="M890.88 760.32c-18.432 18.432-41.984 27.648-67.584 27.648-14.336 0-27.648-3.072-38.912-8.192v10.24c0 25.6-10.24 49.152-27.648 67.584-18.432 18.432-41.984 27.648-67.584 27.648-17.408 0-33.792-5.12-47.104-12.288-5.12 9.216-11.264 18.432-18.432 26.624-18.432 18.432-41.984 27.648-67.584 27.648-46.080 0-83.968-32.768-93.184-75.776-14.336 7.168-31.744 10.24-48.128 9.216h-1.024c-49.152-4.096-87.040-47.104-87.040-97.28v-227.328c-14.336 34.816-32.768 70.656-66.56 95.232-14.336 10.24-65.536 44.032-115.712 30.72l-5.12 1.024c-14.336-5.12-26.624-15.36-31.744-28.672v-2.048c-3.072-8.192-3.072-17.408-1.024-26.624 6.144-41.984 23.552-77.824 39.936-112.64 3.072-7.168 6.144-13.312 10.24-21.504 14.336-29.696 23.552-60.416 32.768-92.16 2.048-7.168 4.096-14.336 6.144-21.504 8.192-26.624 16.384-53.248 24.576-80.896 8.192-26.624 16.384-53.248 24.576-80.896l1.024-2.048c56.32-138.24 188.416-227.328 336.896-227.328 1.024 0 2.048 0 3.072 0 184.32 0 333.824 149.504 333.824 333.824v393.216c-1.024 24.576-10.24 49.152-28.672 66.56zM862.208 302.592c0-153.6-124.928-277.504-278.528-277.504-1.024 0-2.048 0-2.048 0-124.928 0-236.544 74.752-284.672 191.488-8.192 26.624-16.384 53.248-23.552 78.848-8.192 26.624-16.384 53.248-24.576 80.896-2.048 7.168-4.096 13.312-6.144 20.48-10.24 32.768-19.456 66.56-35.84 100.352-3.072 7.168-6.144 14.336-10.24 21.504-14.336 30.72-28.672 60.416-33.792 92.16 19.456 1.024 44.032-10.24 62.464-23.552 26.624-18.432 39.936-52.224 54.272-87.040 3.072-8.192 6.144-16.384 10.24-24.576 19.456-50.176 36.864-57.344 43.008-60.416 9.216-4.096 19.456-3.072 28.672 1.024 23.552 12.288 21.504 43.008 20.48 65.536 0 2.048 0 4.096 0 5.12v277.504c0 21.504 15.36 38.912 35.84 41.984 12.288 0 22.528-4.096 30.72-11.264 5.12-5.12 11.264-14.336 11.264-27.648v-288.768c0-15.36 12.288-28.672 28.672-28.672s28.672 12.288 28.672 28.672v354.304c0 21.504 17.408 38.912 38.912 38.912 13.312 0 22.528-6.144 27.648-11.264s11.264-14.336 11.264-27.648v-41.984c0-119.808 0-301.056-1.024-317.44-1.024-13.312 6.144-25.6 19.456-29.696 3.072-1.024 6.144-1.024 9.216-1.024 0 0 0 0 0 0h1.024c11.264 0 21.504 8.192 25.6 19.456 2.048 6.144 3.072 7.168 3.072 329.728 0 22.528 16.384 38.912 37.888 38.912 13.312 0 22.528-6.144 27.648-11.264s11.264-14.336 11.264-27.648v-310.272c0-15.36 12.288-28.672 28.672-28.672s28.672 12.288 28.672 28.672v211.968c0 21.504 17.408 38.912 38.912 38.912 13.312 0 22.528-6.144 27.648-11.264s11.264-14.336 11.264-27.648v-391.168z" />
<glyph unicode="&#xe945;" glyph-name="flag" data-tags="flag" d="M785.408 427.52c0 1.024-1.024 3.072-1.024 4.096 0 0 0 0 0 0l-55.296 128c-1.024 3.072-1.024 5.12 0 8.192l55.296 128c1.024 2.048 1.024 4.096 2.048 6.144 0 2.048 0 3.072 0 5.12 0 0 0 0 0 0s0 0 0 0c0 2.048 0 3.072 0 5.12 0 1.024 0 1.024-1.024 2.048 0 1.024-1.024 2.048-1.024 3.072s-1.024 1.024-1.024 2.048-1.024 2.048-2.048 3.072c0 0-1.024 1.024-1.024 1.024-1.024 1.024-2.048 2.048-3.072 3.072 0 0 0 0-1.024 1.024s-2.048 2.048-3.072 3.072c0 0 0 0 0 0-1.024 1.024-3.072 2.048-4.096 2.048-4.096 2.048-7.168 2.048-11.264 2.048h-201.728v71.68c0 15.36-12.288 28.672-28.672 28.672h-232.448v77.824c0 13.312-9.216 25.6-22.528 28.672-18.432 3.072-33.792-10.24-33.792-27.648v-932.864c0-13.312 9.216-25.6 22.528-28.672 18.432-3.072 33.792 10.24 33.792 27.648v512h174.080v-54.272c0-25.6 20.48-46.080 46.080-46.080h242.688c6.144 0 11.264 2.048 16.384 5.12 0 0 1.024 0 1.024 1.024 1.024 1.024 2.048 2.048 3.072 3.072 0 0 1.024 1.024 1.024 1.024 1.024 1.024 2.048 2.048 2.048 3.072s1.024 1.024 1.024 2.048 1.024 2.048 2.048 3.072c0 1.024 0 1.024 1.024 2.048 0 1.024 1.024 2.048 1.024 3.072s0 3.072 0 4.096c0 0 0 1.024 0 1.024s0 0 0 0c-1.024 3.072-1.024 5.12-1.024 7.168zM294.912 778.752h204.8v-230.4h-204.8v230.4zM525.312 492.032h3.072c15.36 0 28.672 12.288 28.672 28.672v158.72h159.744l-48.128-111.616c-1.024-3.072-1.024-5.12 0-8.192l48.128-111.616h-181.248c-6.144 0-10.24 4.096-10.24 10.24v33.792z" />
<glyph unicode="&#xe946;" glyph-name="lock" data-tags="lock" d="M776.192 614.912v57.344c0 145.408-118.784 263.168-264.192 263.168s-264.192-118.784-264.192-264.192v-57.344c-93.184-17.408-163.84-99.328-163.84-197.632v-268.288c0-104.448 84.992-189.44 189.44-189.44h476.16c104.448 0 189.44 84.992 189.44 189.44v269.312c1.024 98.304-70.656 180.224-162.816 197.632zM512 879.104c114.688 0 207.872-93.184 207.872-207.872v-53.248h-415.744v53.248c0 114.688 93.184 207.872 207.872 207.872zM883.712 150.016c0-73.728-59.392-133.12-133.12-133.12h-477.184c-73.728 0-133.12 59.392-133.12 133.12v267.264c0 79.872 64.512 144.384 144.384 144.384h453.632c79.872 0 144.384-64.512 144.384-144.384v-267.264zM512 350.72c-22.528 0-40.96-18.432-40.96-40.96v-67.584c0-11.264 5.12-22.528 13.312-29.696v-41.984c0-15.36 12.288-28.672 28.672-28.672s28.672 12.288 28.672 28.672v41.984c8.192 7.168 13.312 18.432 13.312 29.696v67.584c-2.048 22.528-20.48 40.96-43.008 40.96z" />
<glyph unicode="&#xe947;" glyph-name="zoom-out" data-tags="zoom-out" d="M965.632 101.888l-217.088 217.088c-18.432 18.432-50.176 19.456-69.632 2.048l-94.208 93.184c44.032 53.248 71.68 121.856 71.68 196.608 0 168.96-137.216 307.2-307.2 307.2s-307.2-137.216-307.2-307.2 137.216-307.2 307.2-307.2c73.728 0 142.336 26.624 195.584 70.656l94.208-93.184-1.024-1.024c-19.456-19.456-19.456-52.224 0-71.68l217.088-216.064c19.456-19.456 52.224-19.456 71.68 0l38.912 38.912c20.48 19.456 20.48 51.2 0 70.656zM99.328 610.816c0 138.24 112.64 250.88 250.88 250.88s250.88-112.64 250.88-250.88-112.64-250.88-250.88-250.88-250.88 113.664-250.88 250.88zM439.296 648.704h-179.2c-15.36 0-28.672-12.288-28.672-28.672s12.288-28.672 28.672-28.672h179.2c15.36 0 28.672 12.288 28.672 28.672s-13.312 28.672-28.672 28.672z" />
<glyph unicode="&#xe948;" glyph-name="zoom-in" data-tags="zoom-in" d="M965.632 101.888l-217.088 217.088c-18.432 18.432-50.176 19.456-69.632 2.048l-94.208 93.184c44.032 53.248 71.68 121.856 71.68 196.608 0 168.96-137.216 307.2-307.2 307.2s-307.2-137.216-307.2-307.2 137.216-307.2 307.2-307.2c73.728 0 142.336 26.624 195.584 70.656l94.208-93.184-1.024-1.024c-19.456-19.456-19.456-52.224 0-71.68l217.088-216.064c19.456-19.456 52.224-19.456 71.68 0l38.912 38.912c20.48 19.456 20.48 51.2 0 70.656zM99.328 610.816c0 138.24 112.64 250.88 250.88 250.88s250.88-112.64 250.88-250.88-112.64-250.88-250.88-250.88-250.88 113.664-250.88 250.88zM439.296 648.704h-61.44v61.44c0 15.36-12.288 28.672-28.672 28.672s-28.672-12.288-28.672-28.672v-61.44h-61.44c-15.36 0-28.672-12.288-28.672-28.672s12.288-28.672 28.672-28.672h61.44v-61.44c0-15.36 12.288-28.672 28.672-28.672s28.672 12.288 28.672 28.672v61.44h61.44c15.36 0 28.672 12.288 28.672 28.672s-13.312 28.672-28.672 28.672z" />
<glyph unicode="&#xe949;" glyph-name="pin-alt" data-tags="pin-alt" d="M737.28 440.832l-40.96 240.64c21.504 14.336 35.84 38.912 36.864 66.56v63.488c0 56.32-46.080 102.4-102.4 102.4h-239.616c-56.32 0-101.376-46.080-101.376-102.4v-63.488c0-28.672 15.36-54.272 37.888-67.584l-40.96-239.616c-27.648-20.48-46.080-54.272-46.080-91.136v-16.384c0-62.464 51.2-113.664 114.688-113.664h20.48l95.232-215.040 1.024-1.024c7.168-13.312 20.48-21.504 34.816-21.504 1.024 0 1.024 0 2.048 0 14.336 1.024 27.648 10.24 32.768 23.552l93.184 214.016h34.816c62.464 0 114.688 51.2 114.688 113.664v16.384c0 37.888-18.432 70.656-47.104 91.136zM346.112 812.544c0 25.6 20.48 46.080 45.056 46.080h240.64c25.6 0 46.080-20.48 46.080-46.080v-62.464c0-13.312-11.264-24.576-25.6-24.576h-282.624c-13.312 0-24.576 11.264-24.576 24.576v62.464zM381.952 669.184h260.096l34.816-204.8c-2.048 0-4.096 0-7.168 0h-315.392c-2.048 0-5.12 0-7.168 0l34.816 204.8zM504.832 65.024l-68.608 154.624h137.216l-68.608-154.624zM728.064 333.312c0-31.744-25.6-57.344-58.368-57.344h-315.392c-31.744 0-58.368 25.6-58.368 57.344v16.384c0 31.744 25.6 57.344 58.368 57.344h315.392c31.744 0 58.368-25.6 58.368-57.344v-16.384z" />
<glyph unicode="&#xe94a;" glyph-name="more-alt" data-tags="more-filled" d="M296.96 452.096c0-72.955-59.141-132.096-132.096-132.096s-132.096 59.141-132.096 132.096c0 72.955 59.141 132.096 132.096 132.096s132.096-59.141 132.096-132.096zM642.048 452.096c0-72.955-59.141-132.096-132.096-132.096s-132.096 59.141-132.096 132.096c0 72.955 59.141 132.096 132.096 132.096s132.096-59.141 132.096-132.096zM988.16 452.096c0-72.955-59.141-132.096-132.096-132.096s-132.096 59.141-132.096 132.096c0 72.955 59.141 132.096 132.096 132.096s132.096-59.141 132.096-132.096z" />
<glyph unicode="&#xe94b;" glyph-name="check-box" data-tags="checkbox" d="M982.016 851.456c-11.264 11.264-28.672 11.264-39.936 0l-126.976-126.976v23.552c0 26.624-21.504 49.152-49.152 49.152h-684.032c-26.624 0-49.152-21.504-49.152-49.152v-663.552c0-26.624 21.504-49.152 49.152-49.152h685.056c26.624 0 49.152 21.504 49.152 49.152v560.128l166.912 166.912c10.24 11.264 10.24 28.672-1.024 39.936zM758.784 92.672h-669.696v647.168h669.696v-72.704l-131.072-130.048-113.664 113.664c-11.264 11.264-28.672 11.264-39.936 0s-11.264-28.672 0-39.936l125.952-125.952c8.192-8.192 17.408-11.264 27.648-11.264s19.456 4.096 27.648 11.264l103.424 103.424v-495.616z" />
<glyph unicode="&#xe94c;" glyph-name="check-mark-circle" data-tags="checkmark-circle" d="M512 936.448c-269.312 0-488.448-219.136-488.448-488.448s219.136-489.472 489.472-489.472c269.312 0 489.472 219.136 489.472 489.472-1.024 269.312-221.184 488.448-490.496 488.448zM512 14.848c-238.592 0-433.152 194.56-433.152 433.152s194.56 432.128 433.152 432.128 433.152-194.56 433.152-433.152-194.56-432.128-433.152-432.128zM714.752 625.152l-297.984-297.984-107.52 106.496c-11.264 11.264-28.672 11.264-39.936 0s-11.264-28.672 0-39.936l119.808-119.808c7.168-7.168 17.408-11.264 27.648-11.264s19.456 4.096 27.648 11.264l310.272 310.272c11.264 11.264 11.264 28.672 0 39.936s-29.696 11.264-39.936 1.024z" />
<glyph unicode="&#xe94d;" glyph-name="cross-circle" data-tags="cross-circle" d="M727.040 660.992c-11.264 11.264-28.672 11.264-39.936 0l-175.104-175.104-175.104 175.104c-11.264 11.264-28.672 11.264-39.936 0s-11.264-28.672 0-39.936l175.104-175.104-175.104-175.104c-11.264-11.264-11.264-28.672 0-39.936 5.12-5.12 12.288-8.192 19.456-8.192s14.336 3.072 19.456 8.192l176.128 175.104 175.104-175.104c5.12-5.12 12.288-8.192 19.456-8.192s14.336 3.072 19.456 8.192c11.264 11.264 11.264 28.672 0 39.936l-174.080 175.104 175.104 175.104c11.264 11.264 11.264 28.672 0 39.936zM512 936.448c-269.312 0-488.448-219.136-488.448-488.448s219.136-489.472 489.472-489.472c269.312 0 489.472 219.136 489.472 489.472-1.024 269.312-221.184 488.448-490.496 488.448zM512 14.848c-238.592 0-433.152 194.56-433.152 433.152s194.56 432.128 433.152 432.128 433.152-194.56 433.152-433.152-194.56-432.128-433.152-432.128z" />
<glyph unicode="&#xe94e;" glyph-name="circle-minus" data-tags="circle-minus" d="M788.48 473.6h-551.936c-15.36 0-28.672-12.288-28.672-28.672s12.288-28.672 28.672-28.672h551.936c15.36 0 28.672 12.288 28.672 28.672s-13.312 28.672-28.672 28.672zM512 936.448c-269.312 0-488.448-219.136-488.448-488.448s219.136-489.472 489.472-489.472c269.312 0 489.472 219.136 489.472 489.472-1.024 269.312-221.184 488.448-490.496 488.448zM512 14.848c-238.592 0-433.152 194.56-433.152 433.152s194.56 432.128 433.152 432.128 433.152-194.56 433.152-433.152-194.56-432.128-433.152-432.128z" />
<glyph unicode="&#xe94f;" glyph-name="star-filled" data-tags="star-filled" d="M991.232 581.12l-313.344 46.080-142.336 284.672c-10.24 19.456-38.912 19.456-48.128 0l-141.312-285.696-313.344-45.056c-22.528-3.072-31.744-31.744-14.336-46.080l226.304-222.208-53.248-312.32c-3.072-21.504 18.432-38.912 39.936-26.624l281.6 146.432 280.576-146.432c18.432-10.24 43.008 6.144 38.912 26.624l-53.248 312.32 226.304 222.208c16.384 15.36 8.192 43.008-14.336 46.080z" />
<glyph unicode="&#xe950;" glyph-name="star" data-tags="star" d="M237.568-14.848c-8.192 0-15.36 2.048-22.528 7.168-12.288 8.192-17.408 22.528-15.36 37.888l48.128 285.696-207.872 202.752c-10.24 10.24-14.336 25.6-9.216 38.912 4.096 14.336 16.384 23.552 30.72 26.624l286.72 44.032 129.024 261.12c6.144 13.312 19.456 21.504 34.816 21.504 14.336 0 27.648-8.192 34.816-21.504l129.024-261.12 286.72-43.008c14.336-2.048 26.624-12.288 30.72-26.624s1.024-28.672-9.216-38.912l-207.872-202.752 48.128-285.696c2.048-14.336-3.072-28.672-15.36-37.888s-27.648-10.24-39.936-3.072l-257.024 134.144-257.024-134.144c-5.12-3.072-11.264-5.12-17.408-5.12zM105.472 534.016l202.752-198.656-47.104-278.528 250.88 131.072 250.88-130.048-47.104 279.552 202.752 198.656-280.576 41.984-125.952 253.952-125.952-254.976-280.576-43.008z" />
<glyph unicode="&#xe951;" glyph-name="close" data-tags="close" d="M551.936 448l440.32 441.344c11.264 11.264 11.264 28.672 0 39.936s-28.672 11.264-39.936 0l-440.32-441.344-441.344 440.32c-10.24 11.264-28.672 11.264-38.912 0-11.264-10.24-11.264-28.672 0-38.912l440.32-441.344-440.32-441.344c-11.264-11.264-11.264-28.672 0-39.936 5.12-5.12 12.288-8.192 19.456-8.192s14.336 3.072 19.456 8.192l441.344 441.344 441.344-441.344c5.12-5.12 12.288-8.192 19.456-8.192s14.336 3.072 19.456 8.192c11.264 11.264 11.264 28.672 0 39.936l-440.32 441.344z" />
<glyph unicode="&#xe952;" glyph-name="star-empty" data-tags="star-empty" d="M465.92 828.928l36.864 73.728c4.096 7.168 14.336 7.168 18.432 0l36.864-73.728-46.080-22.528-46.080 22.528zM538.172 741.024l50.508 24.922 31.265-63.364-50.508-24.922-31.265 63.364zM688.128 551.424l-60.416 8.192-26.624 55.296 50.176 24.576 14.336-28.672 30.72-4.096zM758.37 541.184l8.099 55.734 69.921-10.16-8.099-55.734-69.921 10.16zM933.888 489.984l-35.84 35.84 1.024 9.216 6.144 41.984 81.92-12.288c8.192-1.024 11.264-11.264 6.144-17.408l-59.392-57.344zM792.963 431.455l50.583 49.332 39.323-40.319-50.583-49.332-39.323 40.319zM709.632 280.064l-10.24 59.392 44.032 43.008 38.912-40.96-22.528-21.504 5.12-30.72zM721.401 210.245l55.509 9.518 11.941-69.639-55.509-9.518-11.941 69.639zM799.744-11.776l-72.704 38.912 19.456 36.864 4.096 8.192 9.216 1.024 40.96 7.168 14.336-80.896c1.024-8.192-7.168-15.36-15.36-11.264zM601.773 92.8l26.206 49.849 62.538-32.876-26.206-49.849-62.538 32.876zM484.352 125.44l-26.624 50.176 54.272 27.648 54.272-27.648-26.624-50.176-27.648 14.336zM332.811 109.696l62.545 32.876 26.206-49.854-62.545-32.876-26.206 49.854zM208.896-0.512l14.336 80.896 40.96-7.168 9.216-1.024 4.096-8.192 19.456-36.864-72.704-37.888c-8.192-5.12-16.384 2.048-15.36 10.24zM234.776 150.085l11.941 69.639 55.509-9.518-11.941-69.639-55.509 9.518zM314.368 280.064l-55.296 9.216 5.12 30.72-22.528 21.504 38.912 40.96 44.032-43.008zM140.52 440.76l39.311 40.331 50.597-49.318-39.311-40.331-50.597 49.318zM90.112 489.984l-59.392 57.344c-6.144 6.144-3.072 16.384 6.144 17.408l81.92 12.288 6.144-41.984 1.024-9.216-35.84-35.84zM187.869 585.936l69.921 10.16 8.099-55.734-69.921-10.16-8.099 55.734zM335.872 551.424l-8.192 55.296 30.72 4.096 14.336 28.672 50.176-24.576-26.624-55.296zM403.86 702.789l31.279 63.357 50.502-24.933-31.279-63.357-50.502 24.933z" />
<glyph unicode="&#xe953;" glyph-name="star-half" data-tags="star-half" d="M512 199.168v0l-231.424-121.856 44.032 258.048-187.392 182.272 259.072 37.888 115.712 234.496 8.192 16.384 37.888 18.432-46.080 92.16-153.6-310.272-331.776-48.128c-4.096-1.024-6.144-6.144-3.072-8.192l240.64-234.496-56.32-330.752c-1.024-4.096 4.096-7.168 7.168-5.12l296.96 156.672 27.648-14.336 26.624 50.176-54.272 26.624zM538.061 736.911l50.508 24.922 31.265-63.364-50.508-24.922-31.265 63.364zM651.264 635.392l-50.176-25.6 26.624-54.272 60.416-9.216 8.192 56.32-30.72 4.096zM758.12 536.891l8.099 55.734 69.921-10.16-8.099-55.734-69.921 10.16zM905.216 571.904l-6.144-41.984-1.024-9.216 35.84-35.84 66.56 64.512c3.072 3.072 1.024 8.192-3.072 9.216l-92.16 13.312zM793.518 426.537l50.604 49.311 39.306-40.336-50.604-49.311-39.306 40.336zM759.808 315.904l22.528 21.504-38.912 39.936-44.032-41.984 10.24-60.416 55.296 10.24zM721.361 206.146l55.509 9.518 11.941-69.639-55.509-9.518-11.941 69.639zM759.808 69.12l-9.216-1.024-4.096-8.192-19.456-37.888 81.92-43.008c4.096-2.048 8.192 1.024 7.168 5.12l-15.36 91.136-40.96-6.144zM602.459 88.096l26.206 49.849 62.538-32.876-26.206-49.849-62.538 32.876z" />
<glyph unicode="&#xe954;" glyph-name="question-circle" data-tags="question-circle" d="M523.264 723.456c-60.416 7.168-117.76-23.552-145.408-77.824-7.168-14.336-2.048-30.72 12.288-37.888s30.72-2.048 37.888 12.288c17.408 32.768 52.224 52.224 89.088 48.128 39.936-5.12 72.704-38.912 77.824-77.824 4.096-37.888-15.36-73.728-49.152-90.112-40.96-19.456-66.56-62.464-66.56-109.568v-119.808c0-15.36 12.288-28.672 28.672-28.672s28.672 12.288 28.672 28.672v119.808c0 24.576 14.336 48.128 34.816 58.368 55.296 26.624 87.040 84.992 80.896 146.432-10.24 65.536-63.488 119.808-129.024 128zM505.856 193.024c-15.36 0-27.648-12.288-27.648-27.648s12.288-27.648 27.648-27.648c15.36 0 27.648 12.288 27.648 27.648s-12.288 27.648-27.648 27.648zM504.832 938.496c-266.24 0-483.328-217.088-483.328-483.328s217.088-483.328 483.328-483.328c266.24 0 483.328 217.088 483.328 483.328 0 267.264-217.088 483.328-483.328 483.328zM504.832 28.16c-235.52 0-427.008 191.488-427.008 427.008s191.488 427.008 427.008 427.008 427.008-191.488 427.008-427.008-191.488-427.008-427.008-427.008z" />
<glyph unicode="&#xe955;" glyph-name="thumbs-down" data-tags="thumbs-down" d="M861.184 842.24v0c-71.68 49.152-174.080 77.824-281.6 77.824-17.408 0-34.816 0-55.296-2.048-135.168-13.312-219.136-34.816-262.144-67.584-4.096 0-8.192 1.024-12.288 1.024h-120.832c-59.392 0-107.52-48.128-107.52-107.52v-330.752c0-60.416 48.128-109.568 107.52-109.568h120.832c6.144 0 13.312 1.024 20.48 2.048 3.072-2.048 6.144-3.072 10.24-4.096 25.6-10.24 115.712-90.112 222.208-264.192 22.528-38.912 62.464-61.44 105.472-61.44 3.072 0 7.168 0 10.24 0 46.080 4.096 86.016 30.72 105.472 70.656s10.24 137.216 0 207.872c90.112-1.024 208.896 4.096 248.832 99.328 62.464 142.336 26.624 392.192-111.616 488.448zM77.824 413.184v330.752c0 28.672 22.528 51.2 51.2 51.2h113.664v-435.2h-113.664c-28.672 0-51.2 23.552-51.2 53.248zM921.6 375.296c-28.672-68.608-144.384-66.56-220.16-64.512h-43.008l5.12-32.768c16.384-99.328 21.504-184.32 10.24-206.848s-32.768-36.864-59.392-39.936c-25.6-2.048-49.152 10.24-63.488 33.792-106.496 173.056-204.8 270.336-251.904 287.744h-1.024v454.656c22.528 16.384 80.896 39.936 230.4 54.272 18.432 2.048 32.768 2.048 49.152 2.048 96.256 0 187.392-24.576 249.856-67.584 113.664-77.824 146.432-300.032 94.208-420.864z" />
</font>
</defs>
</svg>
